<?xml version="1.0" standalone="no"?>
<!DOCTYPE svg PUBLIC "-//W3C//DTD SVG 1.1//EN" "http://www.w3.org/Graphics/SVG/1.1/DTD/svg11.dtd" >
<svg xmlns="http://www.w3.org/2000/svg" xmlns:xlink="http://www.w3.org/1999/xlink" version="1.1">
<metadata>
Created by FontForge 20170731 at Wed Mar 27 07:23:55 2019
 By Aleksey,,,
Copyright (c) 2001 by Henrik Kubel, A2/SW/HK + A2-TYPE. All rights reserved.
</metadata>
<defs>
<font id="Boing-Semibold" horiz-adv-x="591" >
  <font-face
    font-family="Boing Semibold"
    font-weight="600"
    font-stretch="normal"
    units-per-em="1000"
    panose-1="0 0 0 0 0 0 0 0 0 0"
    ascent="800"
    descent="-200"
    x-height="487"
    cap-height="700"
    bbox="-194.786 -264 1159 1038"
    underline-thickness="50"
    underline-position="-250"
    unicode-range="U+0020-2212"
  />
<missing-glyph horiz-adv-x="0"
 />
    <glyph glyph-name="f_f" unicode="ff" horiz-adv-x="604"
d="M490 541v-54h85q9 0 15.5 -6.5t6.5 -15.5v-77q0 -8 -6.5 -15t-15.5 -7h-85v-344q0 -9 -6 -15.5t-16 -6.5h-100q-9 0 -15.5 6.5t-6.5 15.5v344h-106v-344q0 -9 -6 -15.5t-15 -6.5h-101q-9 0 -15.5 6.5t-6.5 15.5v344h-64q-9 0 -15.5 7t-6.5 15v77q0 9 6.5 15.5t15.5 6.5
h64v65q0 74 38.5 111t90.5 37h46q33 0 33 -32v-76q0 -25 -23 -25h-9q-32 0 -32 -34v-46h106v68q0 86 52 130.5t125 44.5q38 0 77.5 -13t63.5 -36q18 -16 2 -37l-42 -60q-13 -20 -41 -2q-24 16 -44 16q-21 0 -35 -14.5t-14 -42.5z" />
    <glyph glyph-name="fi" unicode="fi" horiz-adv-x="534"
d="M240 366v-344q0 -9 -6 -15.5t-15 -6.5h-101q-9 0 -15.5 6.5t-6.5 15.5v344h-64q-22 0 -22 19v80q0 9 6.5 15.5t15.5 6.5h64v68q0 86 52.5 130.5t125.5 44.5q37 0 77 -13t64 -36q17 -15 2 -37l-42 -60q-14 -20 -42 -2q-23 16 -44 16t-35 -14.5t-14 -42.5v-54h229
q9 0 15.5 -6.5t6.5 -15.5v-443q0 -9 -6.5 -15.5t-15.5 -6.5h-101q-9 0 -15.5 6.5t-6.5 15.5v344h-106z" />
    <glyph glyph-name="fl" unicode="fl" horiz-adv-x="582"
d="M346 487v191q0 9 6.5 15.5t15.5 6.5h101q9 0 15.5 -6.5t6.5 -15.5v-527q0 -31 30 -31h31q20 0 20 -21v-72q0 -27 -28 -27h-70q-65 0 -96.5 33t-31.5 89v244h-106v-344q0 -9 -6 -15.5t-15 -6.5h-101q-9 0 -15.5 6.5t-6.5 15.5v344h-64q-9 0 -15.5 7t-6.5 15v77
q0 9 6.5 15.5t15.5 6.5h64v65q0 74 38.5 111t90.5 37h46q33 0 33 -32v-76q0 -25 -23 -25h-9q-32 0 -32 -34v-46h106z" />
    <glyph glyph-name="f_f_i" unicode="ffi" horiz-adv-x="784"
d="M346 555q0 86 52.5 130.5t125.5 44.5q37 0 77 -13t64 -36q18 -16 2 -37l-42 -60q-15 -20 -41 -2q-24 16 -44 16q-21 0 -35 -14.5t-14 -42.5v-54h229q9 0 15 -6.5t6 -15.5v-443q0 -9 -6 -15.5t-15 -6.5h-101q-9 0 -15.5 6.5t-6.5 15.5v344h-106v-344q0 -9 -6.5 -15.5
t-15.5 -6.5h-101q-9 0 -15.5 6.5t-6.5 15.5v344h-106v-344q0 -9 -6 -15.5t-15 -6.5h-101q-9 0 -15.5 6.5t-6.5 15.5v344h-64q-9 0 -15.5 7t-6.5 15v77q0 9 6.5 15.5t15.5 6.5h64v65q0 74 38.5 111t90.5 37h46q33 0 33 -32v-76q0 -25 -23 -25h-9q-32 0 -32 -34v-46h106v68z
" />
    <glyph glyph-name="f_f_l" unicode="ffl" horiz-adv-x="830"
d="M597 487v191q0 9 6.5 15.5t15.5 6.5h101q9 0 15 -6.5t6 -15.5v-527q0 -14 8 -22.5t22 -8.5h31q20 0 20 -21v-72q0 -27 -28 -27h-69q-66 0 -97 32.5t-31 89.5v244h-106v-344q0 -9 -6.5 -15.5t-15.5 -6.5h-101q-9 0 -15.5 6.5t-6.5 15.5v344h-106v-344q0 -9 -6 -15.5
t-15 -6.5h-101q-9 0 -15.5 6.5t-6.5 15.5v344h-64q-9 0 -15.5 7t-6.5 15v77q0 9 6.5 15.5t15.5 6.5h64v65q0 74 38.5 111t90.5 37h46q33 0 33 -32v-76q0 -25 -23 -25h-9q-32 0 -32 -34v-46h106v65q0 74 38.5 111t90.5 37h46q33 0 33 -32v-76q0 -25 -23 -25h-9q-31 0 -31 -34
v-46h106z" />
    <glyph glyph-name="f_j" unicode="fj" horiz-adv-x="534"
d="M240 541v-54h229q9 0 15.5 -6.5t6.5 -15.5v-511q0 -93 -53 -139.5t-127 -46.5q-94 0 -139 48q-16 16 -2 37l42 55q15 20 41 5q24 -14 45 -14q18 0 33 12.5t15 44.5v410h-106v-344q0 -9 -6 -15.5t-15 -6.5h-101q-9 0 -15.5 6.5t-6.5 15.5v344h-64q-9 0 -15.5 6t-6.5 15v78
q0 9 6.5 15.5t15.5 6.5h64v68q0 86 52.5 130.5t125.5 44.5q37 0 77 -13t64 -36q17 -15 2 -37l-42 -60q-14 -20 -42 -2q-23 16 -44 16t-35 -14.5t-14 -42.5z" />
    <glyph glyph-name="f_b" unicode="fb" horiz-adv-x="894"
d="M346 487v192q0 9 6 15t15 6h101q8 0 14.5 -6t6.5 -15v-241q21 28 59.5 45.5t84.5 17.5q100 0 170 -71t70 -186t-70.5 -186.5t-170.5 -71.5q-43 0 -83 15.5t-60 44.5v-25q0 -9 -6.5 -15t-14.5 -6h-101q-9 0 -15 6t-6 15v345h-106v-344q0 -9 -6 -15.5t-15 -6.5h-101
q-9 0 -15.5 6.5t-6.5 15.5v344h-64q-9 0 -15.5 7t-6.5 15v77q0 9 6.5 15.5t15.5 6.5h64v65q0 74 38.5 111t90.5 37h46q33 0 33 -32v-76q0 -25 -23 -25h-9q-32 0 -32 -34v-46h106zM490 242q0 -51 34 -87t85 -36q50 0 84.5 36t34.5 87q0 52 -34.5 88.5t-84.5 36.5
q-51 0 -85 -36.5t-34 -88.5z" />
    <glyph glyph-name="f_h" unicode="fh" horiz-adv-x="894"
d="M240 487h106v192q0 9 6 15t15 6h102q8 0 15 -5.5t7 -14.5v-244q51 65 154 65q106 0 159 -66.5t53 -171.5v-243q0 -9 -6.5 -14.5t-15.5 -5.5h-100q-9 0 -15.5 5.5t-6.5 14.5v231q0 53 -29.5 85t-80.5 32t-81.5 -32.5t-30.5 -84.5v-231q0 -9 -7 -14.5t-15 -5.5h-102
q-9 0 -15 6t-6 15v345h-106v-344q0 -9 -6 -15.5t-15 -6.5h-101q-9 0 -15.5 6.5t-6.5 15.5v344h-64q-9 0 -15.5 7t-6.5 15v77q0 9 6.5 15.5t15.5 6.5h64v65q0 76 42 112t110 36h23q33 0 33 -32v-76q0 -25 -23 -25h-9q-32 0 -32 -34v-46z" />
    <glyph glyph-name="f_k" unicode="fk" horiz-adv-x="811"
d="M240 22q0 -9 -6 -15.5t-15 -6.5h-101q-9 0 -15.5 6.5t-6.5 15.5v344h-64q-9 0 -15.5 7t-6.5 15v77q0 9 6.5 15.5t15.5 6.5h64v65q0 74 38.5 111t90.5 37h46q33 0 33 -32v-76q0 -25 -23 -25h-9q-32 0 -32 -34v-46h106v192q0 9 6.5 15t15.5 6h101q9 0 15.5 -6t6.5 -15v-365
h31l113 156q10 17 29 17h109q15 0 19 -11t-5 -24l-140 -180l164 -236q9 -13 3 -24.5t-22 -11.5h-114q-20 0 -31 18l-125 190h-31v-187q0 -9 -6.5 -15t-15.5 -6h-101q-9 0 -15.5 6t-6.5 15v345h-106v-344z" />
    <glyph glyph-name="f_t" unicode="ft" horiz-adv-x="671"
d="M351 145v221h-111v-344q0 -9 -6 -15.5t-15 -6.5h-101q-9 0 -15.5 6.5t-6.5 15.5v344h-64q-9 0 -15.5 7t-6.5 15v77q0 9 6.5 15.5t15.5 6.5h64v65q0 76 42 112t110 36h23q33 0 33 -32v-76q0 -25 -23 -25h-9q-32 0 -32 -34v-46h111v129q0 9 6.5 15.5t15.5 6.5h102
q9 0 15 -6t6 -16v-129h138q9 0 15.5 -6.5t6.5 -15.5v-77q0 -8 -6.5 -15t-15.5 -7h-138v-187q0 -32 15 -44t34 -12q20 0 45 14q26 17 40 -4l35 -56q12 -19 -3 -36q-49 -52 -143 -52q-70 0 -119 39t-49 117z" />
    <glyph glyph-name="f_f_j" unicode="ffj" horiz-adv-x="783"
d="M490 541v-54h229q9 0 15 -6.5t6 -15.5v-511q0 -93 -52.5 -139.5t-126.5 -46.5q-94 0 -139 48q-16 16 -2 37l41 55q16 21 41 5q25 -14 45 -14q19 0 34 12.5t15 44.5v410h-106v-344q0 -9 -6 -15.5t-16 -6.5h-100q-9 0 -15.5 6.5t-6.5 15.5v344h-106v-344q0 -9 -6 -15.5
t-15 -6.5h-101q-9 0 -15.5 6.5t-6.5 15.5v344h-64q-9 0 -15.5 7t-6.5 15v77q0 9 6.5 15.5t15.5 6.5h64v65q0 76 42 112t110 36h23q33 0 33 -32v-76q0 -25 -23 -25h-9q-32 0 -32 -34v-46h106v68q0 86 52.5 130.5t125.5 44.5q37 0 77 -13t64 -36q18 -16 2 -37l-42 -60
q-14 -21 -41 -2q-24 16 -44 16q-21 0 -35.5 -14.5t-14.5 -42.5z" />
    <glyph glyph-name="f_f_f" unicode="fff" horiz-adv-x="861"
d="M740 541v-54h93q9 0 15.5 -6.5t6.5 -15.5v-77q0 -8 -6.5 -15t-15.5 -7h-93v-344q0 -9 -6 -15.5t-15 -6.5h-101q-9 0 -15.5 6.5t-6.5 15.5v344h-106v-344q0 -9 -6 -15.5t-16 -6.5h-100q-9 0 -15.5 6.5t-6.5 15.5v344h-106v-344q0 -9 -6 -15.5t-15 -6.5h-101
q-9 0 -15.5 6.5t-6.5 15.5v344h-64q-9 0 -15.5 7t-6.5 15v77q0 9 6.5 15.5t15.5 6.5h64v65q0 74 38.5 111t90.5 37h46q33 0 33 -32v-76q0 -25 -23 -25h-9q-32 0 -32 -34v-46h106v65q0 74 38.5 111t90.5 37h46q33 0 33 -32v-76q0 -25 -24 -25h-8q-32 0 -32 -34v-46h106v68
q0 86 52.5 130.5t125.5 44.5q37 0 77 -13t64 -36q17 -15 2 -37l-42 -60q-14 -21 -41 -2q-24 16 -45 16t-35 -14.5t-14 -42.5z" />
    <glyph glyph-name="f_f_b" unicode="ffb" horiz-adv-x="1144"
d="M1123 244q0 -115 -70.5 -186.5t-170.5 -71.5q-43 0 -83 15.5t-60 44.5v-25q0 -9 -6 -15t-16 -6h-100q-9 0 -15 6t-6 15v345h-106v-344q0 -9 -6 -15.5t-16 -6.5h-100q-9 0 -15.5 6.5t-6.5 15.5v344h-106v-344q0 -9 -6 -15.5t-15 -6.5h-101q-9 0 -15.5 6.5t-6.5 15.5v344
h-64q-9 0 -15.5 7t-6.5 15v77q0 9 6.5 15.5t15.5 6.5h64v65q0 74 38.5 111t90.5 37h46q33 0 33 -32v-76q0 -25 -23 -25h-9q-32 0 -32 -34v-46h106v65q0 74 38.5 111t90.5 37h46q33 0 33 -32v-76q0 -25 -24 -25h-8q-32 0 -32 -34v-46h106v192q0 9 6 15t15 6h100q9 0 15.5 -6
t6.5 -15v-241q21 28 59.5 45.5t84.5 17.5q100 0 170 -71t70 -186zM739 242q0 -51 34 -87t85 -36t85.5 36t34.5 87q0 52 -34.5 88.5t-85.5 36.5t-85 -36.5t-34 -88.5z" />
    <glyph glyph-name="f_f_h" unicode="ffh" horiz-adv-x="1144"
d="M490 487h106v192q0 9 6 15t15 6h101q9 0 15.5 -5.5t6.5 -14.5v-244q54 65 155 65q106 0 159 -66.5t53 -171.5v-243q0 -9 -6.5 -14.5t-15.5 -5.5h-101q-8 0 -15 5.5t-7 14.5v231q0 53 -29 85t-79 32q-51 0 -82.5 -32.5t-31.5 -84.5v-231q0 -9 -6.5 -14.5t-15.5 -5.5h-101
q-9 0 -15 6t-6 15v345h-106v-344q0 -9 -6 -15.5t-16 -6.5h-100q-9 0 -15.5 6.5t-6.5 15.5v344h-106v-344q0 -9 -6 -15.5t-15 -6.5h-101q-9 0 -15.5 6.5t-6.5 15.5v344h-64q-9 0 -15.5 7t-6.5 15v77q0 9 6.5 15.5t15.5 6.5h64v65q0 74 38.5 111t90.5 37h46q33 0 33 -32v-76
q0 -25 -23 -25h-9q-32 0 -32 -34v-46h106v65q0 74 38.5 111t90.5 37h46q33 0 33 -32v-76q0 -25 -24 -25h-8q-32 0 -32 -34v-46z" />
    <glyph glyph-name="f_f_k" unicode="ffk" horiz-adv-x="1062"
d="M240 22q0 -9 -6 -15.5t-15 -6.5h-101q-9 0 -15.5 6.5t-6.5 15.5v344h-64q-9 0 -15.5 7t-6.5 15v77q0 9 6.5 15.5t15.5 6.5h64v65q0 74 38.5 111t90.5 37h46q33 0 33 -32v-76q0 -25 -23 -25h-9q-32 0 -32 -34v-46h106v65q0 74 38.5 111t90.5 37h46q33 0 33 -32v-76
q0 -25 -24 -25h-8q-32 0 -32 -34v-46h106v192q0 9 6.5 15t15.5 6h101q9 0 15 -6t6 -15v-365h33l112 156q12 17 30 17h109q15 0 19 -11t-5 -24l-141 -180l165 -236q9 -13 3 -24.5t-23 -11.5h-114q-19 0 -30 18l-125 190h-33v-187q0 -9 -6 -15t-15 -6h-101q-9 0 -15.5 6
t-6.5 15v345h-106v-344q0 -9 -6 -15.5t-16 -6.5h-100q-9 0 -15.5 6.5t-6.5 15.5v344h-106v-344z" />
    <glyph glyph-name="f_f_t" unicode="fft" horiz-adv-x="916"
d="M741 179q0 -32 15 -44t34 -12q21 0 45 14q26 17 40 -4l35 -56q13 -20 -3 -36q-49 -52 -143 -52q-70 0 -118.5 39t-48.5 117v221h-106v-344q0 -9 -6.5 -15.5t-15.5 -6.5h-101q-9 0 -15.5 6.5t-6.5 15.5v344h-106v-344q0 -9 -6 -15.5t-15 -6.5h-101q-9 0 -15.5 6.5
t-6.5 15.5v344h-64q-9 0 -15.5 7t-6.5 15v77q0 9 6.5 15.5t15.5 6.5h64v65q0 74 38.5 111t90.5 37h46q33 0 33 -32v-76q0 -25 -23 -25h-9q-32 0 -32 -34v-46h106v65q0 74 38.5 111t90.5 37h46q33 0 33 -32v-76q0 -25 -23 -25h-9q-31 0 -31 -34v-46h106v129q0 10 6.5 16
t15.5 6h101q9 0 15 -6t6 -16v-129h138q9 0 15.5 -6.5t6.5 -15.5v-77q0 -8 -6.5 -15t-15.5 -7h-138v-187z" />
    <glyph glyph-name=".notdef" horiz-adv-x="0"
 />
    <glyph glyph-name=".null" horiz-adv-x="0"
 />
    <glyph glyph-name="nonmarkingreturn" horiz-adv-x="333"
 />
    <glyph glyph-name="space" unicode=" " horiz-adv-x="200"
 />
    <glyph glyph-name="exclam" unicode="!" horiz-adv-x="285"
d="M218 678l-1 -416q0 -9 -6.5 -16t-16.5 -7h-103q-10 0 -16.5 7t-6.5 16l-2 416q0 9 7 15.5t17 6.5h105q10 0 16.5 -6.5t6.5 -15.5zM142 -14q-38 0 -66 27.5t-28 66.5t28 66.5t66 27.5q39 0 67 -27.5t28 -66.5t-28 -66.5t-67 -27.5z" />
    <glyph glyph-name="quotedbl" unicode="&#x22;" horiz-adv-x="443"
d="M169 386h-98q-10 0 -16 6.5t-6 15.5v271q0 9 6 15t16 6h98q9 0 15.5 -6t6.5 -15v-271q0 -9 -6.5 -15.5t-15.5 -6.5zM372 386h-99q-9 0 -15.5 6.5t-6.5 15.5v271q0 9 6.5 15t15.5 6h99q9 0 15.5 -6t6.5 -15v-271q0 -9 -6.5 -15.5t-15.5 -6.5z" />
    <glyph glyph-name="numbersign" unicode="#" horiz-adv-x="629"
d="M381 287v125h-132v-125h132zM249 22q0 -9 -6.5 -15.5t-15.5 -6.5h-46q-9 0 -15.5 6.5t-6.5 15.5v179h-105q-10 0 -16 6.5t-6 16.5v42q0 9 6 15t16 6h105v125h-105q-22 0 -22 22v42q0 9 6 15.5t16 6.5h105v181q0 9 6.5 15t15.5 6h46q9 0 15.5 -6t6.5 -15v-181h132v181
q0 9 6.5 15t15.5 6h46q10 0 16 -6t6 -15v-181h104q8 0 15 -6.5t7 -15.5v-42q0 -9 -6.5 -15.5t-15.5 -6.5h-104v-125h104q9 0 15.5 -6t6.5 -15v-42q0 -10 -6.5 -16.5t-15.5 -6.5h-104v-179q0 -9 -6 -15.5t-16 -6.5h-46q-9 0 -15.5 6.5t-6.5 15.5v179h-132v-179z" />
    <glyph glyph-name="dollar" unicode="$" horiz-adv-x="633"
d="M277 444l6 -1v137q-35 -6 -56 -24.5t-21 -45.5q0 -47 71 -66zM439 193q0 53 -79 76v-147q38 6 58.5 26t20.5 45zM336 -96h-29q-10 0 -17 7t-7 17v59q-155 11 -239 101q-14 14 -15.5 30.5t13.5 30.5l64 50q25 18 51 -8q57 -56 126 -68v166l-65 16q-82 20 -127.5 70
t-45.5 124q0 87 66 146t172 68v60q0 10 7 16.5t17 6.5h29q10 0 17 -6.5t7 -16.5v-61q129 -13 199 -81q32 -29 6 -55l-49 -51q-25 -25 -57 -1q-53 40 -99 52v-152l51 -13q192 -50 192 -203q0 -82 -63.5 -145.5t-179.5 -74.5v-60q0 -10 -7 -17t-17 -7z" />
    <glyph glyph-name="percent" unicode="%" horiz-adv-x="706"
d="M170 707q66 0 103 -50t37 -131t-37 -132t-103 -51t-103 51t-37 132t37 131t103 50zM139 0h-29q-15 0 -20 11t3 22l441 649q11 18 32 18h28q16 0 21 -11t-3 -22l-441 -649q-11 -18 -32 -18zM113 524q0 -112 57 -112q58 0 58 112q0 114 -58 114q-57 0 -57 -114zM536 355
q66 0 103 -50.5t37 -130.5q0 -82 -36.5 -132.5t-103.5 -50.5t-103.5 50.5t-36.5 132.5q0 80 36.5 130.5t103.5 50.5zM479 171q0 -112 57 -112t57 112q0 115 -57 115t-57 -115z" />
    <glyph glyph-name="ampersand" unicode="&#x26;" horiz-adv-x="713"
d="M241 541q0 -35 46 -81l21 14q53 33 53 73q0 26 -17.5 41t-40.5 15q-24 0 -43 -17.5t-19 -44.5zM287 110q60 0 108 41l-149 154l-12 -8q-57 -42 -57 -96q0 -38 30.5 -64.5t79.5 -26.5zM529 13l-47 49q-94 -76 -213 -76q-103 0 -172.5 58.5t-69.5 148.5q0 111 112 185
l22 15q-59 62 -59 141q0 73 56 127t145 54q88 0 139 -48t51 -117q0 -96 -106 -160l-20 -11l111 -113q24 56 30 125q3 18 25 18h98q23 0 23 -22q-2 -32 -22 -99.5t-52 -125.5l130 -132q10 -11 5.5 -20.5t-15.5 -9.5h-139q-22 0 -32 13z" />
    <glyph glyph-name="quotesingle" unicode="'" horiz-adv-x="266"
d="M99 529q-55 27 -55 87q0 41 29 69.5t71 28.5t71.5 -29t29.5 -76q0 -59 -40.5 -115.5t-85.5 -90.5q-32 -25 -57 -10l-15 10q-23 17 -7 36z" />
    <glyph glyph-name="parenleft" unicode="(" horiz-adv-x="304"
d="M184 315q0 -196 89 -386q12 -28 12 -34q0 -15 -17 -15h-53q-22 0 -40 20q-58 69 -103.5 185t-45.5 230t45.5 230t103.5 185q18 20 40 20h53q17 0 17 -15q0 -6 -12 -34q-89 -190 -89 -386z" />
    <glyph glyph-name="parenright" unicode=")" horiz-adv-x="304"
d="M121 315q0 194 -90 386q-12 28 -12 34q0 15 17 15h54q21 0 39 -20q58 -69 103.5 -185t45.5 -230t-45.5 -230t-103.5 -185q-18 -20 -39 -20h-54q-17 0 -17 15q0 6 12 34q90 192 90 386z" />
    <glyph glyph-name="asterisk" unicode="*" horiz-adv-x="517"
d="M310 285q0 -22 -15 -37t-37 -15q-21 0 -36.5 15t-15.5 37q0 8 6.5 40.5t15.5 71.5t11 49q-10 -7 -65.5 -53t-65.5 -52q-19 -10 -39 -4t-30 25q-9 19 -3.5 39t24.5 32q10 5 78.5 22.5t82.5 23.5q-16 7 -84 25t-77 22q-19 12 -24.5 33t3.5 39q10 19 30 25t39 -4
q10 -6 65.5 -52t65.5 -54q-2 10 -11 49.5t-15.5 72t-6.5 40.5q0 21 15.5 36t36.5 15q22 0 37 -15t15 -36q0 -8 -6.5 -40.5t-15.5 -72t-11 -49.5q10 8 65.5 54t65.5 52q19 10 39 4t31 -25q9 -18 3.5 -39t-25.5 -33q-9 -4 -76.5 -22t-83.5 -25q14 -6 82 -23.5t78 -22.5
q20 -12 25.5 -32t-3.5 -39q-11 -19 -31 -25t-39 4q-10 6 -65.5 52t-65.5 53q2 -10 11 -49t15.5 -71.5t6.5 -40.5z" />
    <glyph glyph-name="plus" unicode="+"
d="M242 620h105q22 0 22 -22v-175h169q10 0 16.5 -7t6.5 -16v-97q0 -10 -6.5 -16.5t-16.5 -6.5h-169v-176q0 -9 -6.5 -16t-15.5 -7h-105q-9 0 -15.5 7t-6.5 16v176h-168q-10 0 -16 6.5t-6 16.5v97q0 9 6.5 16t15.5 7h168v175q0 10 6.5 16t15.5 6z" />
    <glyph glyph-name="comma" unicode="," horiz-adv-x="261"
d="M87 -3q-24 11 -39 33.5t-15 49.5q0 39 27.5 66.5t68.5 27.5q40 0 68.5 -28t28.5 -72q0 -56 -39 -111.5t-82 -86.5q-33 -24 -55 -9l-13 9q-22 15 -7 35z" />
    <glyph glyph-name="hyphen" unicode="-" horiz-adv-x="381"
d="M311 220h-241q-10 0 -16.5 6.5t-6.5 16.5v104q0 9 6.5 16t16.5 7h241q10 0 16.5 -7t6.5 -16v-104q0 -10 -6.5 -16.5t-16.5 -6.5z" />
    <glyph glyph-name="period" unicode="." horiz-adv-x="251"
d="M125 -14q-39 0 -66.5 27.5t-27.5 66.5t27.5 66.5t66.5 27.5t67 -27.5t28 -66.5t-28 -66.5t-67 -27.5z" />
    <glyph glyph-name="slash" unicode="/" horiz-adv-x="478"
d="M345 684q9 16 25 16h60q14 0 19 -9.5t-1 -20.5l-314 -652q-7 -18 -28 -18h-60q-15 0 -19.5 10t1.5 21z" />
    <glyph glyph-name="zero" unicode="0" horiz-adv-x="614"
d="M307 714q130 0 201 -97.5t71 -264.5q0 -169 -71 -267.5t-201 -98.5q-131 0 -201.5 98.5t-70.5 267.5q0 167 70.5 264.5t201.5 97.5zM307 110q55 0 87.5 57.5t32.5 179.5q0 126 -32.5 184.5t-87.5 58.5q-121 0 -121 -243q0 -122 33 -179.5t88 -57.5z" />
    <glyph glyph-name="one" unicode="1" horiz-adv-x="334"
d="M14 514v76q0 25 23 25h14q68 0 97 64q11 21 33 21h62q10 0 16 -6.5t6 -15.5v-655q0 -10 -6.5 -16.5t-16.5 -6.5h-99q-10 0 -16.5 6.5t-6.5 16.5v469h-84q-9 0 -15.5 6t-6.5 16z" />
    <glyph glyph-name="two" unicode="2" horiz-adv-x="573"
d="M520 0h-460q-8 0 -15 6.5t-7 15.5v73q0 24 18 39l194 168q70 59 102 100t32 84q0 44 -30 70t-74 26q-85 0 -120 -95q-14 -36 -44 -26l-74 23q-25 7 -18 34q19 82 87 139t173 57q108 0 178.5 -59.5t70.5 -160.5q0 -72 -46.5 -134.5t-134.5 -136.5l-113 -95h281
q10 0 16 -6.5t6 -15.5v-84q0 -9 -6 -15.5t-16 -6.5z" />
    <glyph glyph-name="three" unicode="3" horiz-adv-x="593"
d="M267 426h20q42 0 70 23t28 60q0 36 -25.5 59t-67.5 23q-62 0 -107 -73q-13 -21 -33 -13l-72 31q-26 11 -16 36q23 58 84 100t154 42q97 0 160.5 -50.5t63.5 -132.5q0 -48 -27.5 -87.5t-72.5 -55.5q60 -16 98 -61t38 -115q0 -102 -75 -164t-195 -62q-121 0 -198 64.5
t-77 166.5v15q0 9 6.5 15t15.5 6h103q10 0 16.5 -6t6.5 -15v-6q0 -49 33.5 -82.5t92.5 -33.5q55 0 87.5 29.5t32.5 73.5q0 42 -31.5 69.5t-86.5 27.5h-27q-9 0 -15.5 6.5t-6.5 16.5v69q0 10 6.5 17t16.5 7z" />
    <glyph glyph-name="four" unicode="4" horiz-adv-x="593"
d="M336 182h-300q-10 0 -16.5 7t-6.5 16v78q0 33 14 55l257 344q11 18 32 18h144q10 0 16.5 -6.5t6.5 -15.5v-377h69q10 0 16.5 -6.5t6.5 -16.5v-73q0 -9 -6.5 -16t-16.5 -7h-69v-159q0 -10 -6.5 -16.5t-16.5 -6.5h-101q-10 0 -16.5 6.5t-6.5 16.5v159zM145 301h191v257z
" />
    <glyph glyph-name="five" unicode="5" horiz-adv-x="581"
d="M279 -14q-83 0 -148.5 31.5t-102.5 85.5q-16 22 8 40l56 47q24 20 47 -5q62 -69 138 -69q56 0 93.5 32.5t37.5 82.5q0 51 -36.5 80.5t-86.5 29.5q-56 0 -102 -38q-12 -9 -26 -6l-89 20q-19 5 -17 22l24 338q2 23 23 23h396q10 0 16.5 -6.5t6.5 -16.5v-88
q0 -10 -6.5 -16.5t-16.5 -6.5h-303l-11 -142q61 39 138 39q99 0 169 -62t70 -166t-77.5 -176.5t-200.5 -72.5z" />
    <glyph glyph-name="six" unicode="6" horiz-adv-x="598"
d="M310 -14q-123 0 -201.5 77.5t-78.5 195.5q0 53 17.5 107t40.5 95t61.5 88t65 74t67.5 66q11 11 32 11h115q15 0 18.5 -13.5t-6.5 -23.5q-40 -40 -121 -125t-97 -111q56 38 123 38q100 0 169 -65t69 -161q0 -107 -77.5 -180t-196.5 -73zM309 354q-53 0 -88.5 -35.5
t-35.5 -85.5t35.5 -86t88.5 -36t88.5 36t35.5 86t-35 85.5t-89 35.5z" />
    <glyph glyph-name="seven" unicode="7" horiz-adv-x="543"
d="M526 625q0 -25 -12 -49l-263 -560q-8 -16 -28 -16h-118q-15 0 -20 10.5t2 21.5l271 534h-320q-10 0 -17 6.5t-7 16.5v88q0 10 7 16.5t17 6.5h465q9 0 16 -6.5t7 -15.5v-53z" />
    <glyph glyph-name="eight" unicode="8" horiz-adv-x="627"
d="M313 -14q-130 0 -206.5 62.5t-76.5 155.5q0 62 35.5 108t88.5 66q-40 20 -65.5 58.5t-25.5 87.5q0 84 70 137t180 53q111 0 181 -53t70 -137q0 -50 -25.5 -88t-66.5 -58q54 -20 89.5 -66t35.5 -108q0 -93 -76.5 -155.5t-207.5 -62.5zM313 429q48 0 79 24.5t31 62.5
q0 36 -31 60.5t-79 24.5q-47 0 -78 -24.5t-31 -60.5q0 -38 31 -62.5t78 -24.5zM313 313q-57 0 -93 -29.5t-36 -74.5q0 -43 36.5 -72.5t92.5 -29.5q57 0 93.5 29.5t36.5 72.5q0 45 -36.5 74.5t-93.5 29.5z" />
    <glyph glyph-name="nine" unicode="9" horiz-adv-x="597"
d="M283 0h-114q-15 0 -19 13.5t6 23.5q40 40 121 125t97 111q-54 -38 -123 -38q-100 0 -169 65t-69 161q0 106 77.5 179.5t196.5 73.5q123 0 201.5 -77.5t78.5 -195.5q0 -53 -17.5 -107t-40 -94.5t-61.5 -88.5t-65 -74.5t-67 -65.5q-12 -11 -33 -11zM289 346q53 0 88.5 36
t35.5 85q0 50 -35.5 86t-88.5 36t-89 -36t-36 -86t35.5 -85.5t89.5 -35.5z" />
    <glyph glyph-name="colon" unicode=":" horiz-adv-x="273"
d="M136 296q-39 0 -66.5 27.5t-27.5 66.5t27.5 67t66.5 28t67 -28t28 -67t-28 -66.5t-67 -27.5zM136 -14q-39 0 -66.5 27.5t-27.5 66.5t27.5 66.5t66.5 27.5t67 -27.5t28 -66.5t-28 -66.5t-67 -27.5z" />
    <glyph glyph-name="semicolon" unicode=";" horiz-adv-x="275"
d="M136 296q-39 0 -66.5 27.5t-27.5 66.5t27.5 67t66.5 28t67 -28t28 -67t-28 -66.5t-67 -27.5zM94 -3q-24 11 -38.5 33.5t-14.5 49.5q0 39 27.5 66.5t67.5 27.5t68.5 -28t28.5 -72q0 -56 -39 -111.5t-82 -86.5q-32 -25 -55 -9l-13 9q-22 15 -6 35z" />
    <glyph glyph-name="less" unicode="&#x3c;" horiz-adv-x="590"
d="M530 198v-107q0 -19 -13.5 -24.5t-27.5 3.5l-432 216q-30 15 -30 60q0 43 30 59l432 216q14 8 27.5 2.5t13.5 -24.5v-107q0 -20 -29 -33l-250 -114l250 -113q29 -14 29 -34z" />
    <glyph glyph-name="equal" unicode="=" horiz-adv-x="630"
d="M558 398h-486q-9 0 -16 6.5t-7 16.5v96q0 9 7 16t16 7h486q9 0 16 -7t7 -16v-96q0 -10 -7 -16.5t-16 -6.5zM558 160h-486q-9 0 -16 6.5t-7 16.5v95q0 10 7 17t16 7h486q9 0 16 -7t7 -17v-95q0 -10 -7 -16.5t-16 -6.5z" />
    <glyph glyph-name="greater" unicode="&#x3e;" horiz-adv-x="590"
d="M60 198q0 19 29 34l250 113l-250 114q-29 14 -29 33v107q0 19 14 24.5t27 -2.5l433 -216q29 -16 29 -59q0 -45 -30 -60l-432 -216q-13 -9 -27 -3.5t-14 24.5v107z" />
    <glyph glyph-name="question" unicode="?" horiz-adv-x="502"
d="M245 714q104 0 161.5 -56t57.5 -132q0 -37 -14 -71.5t-33.5 -60.5t-39.5 -49t-34 -45t-14 -40v-6q0 -10 -6.5 -16t-15.5 -6h-101q-9 0 -15.5 6.5t-6.5 16.5v23q0 30 19.5 64t43 59t43 56t19.5 56q0 27 -20.5 47t-56.5 20q-51 0 -97 -56q-21 -26 -47 -5l-49 39
q-28 23 -2 59q28 40 81.5 68.5t126.5 28.5zM258 -14q-40 0 -67.5 27.5t-27.5 66.5t27.5 66.5t67.5 27.5q38 0 66 -27.5t28 -66.5t-28 -66.5t-66 -27.5z" />
    <glyph glyph-name="at" unicode="@" horiz-adv-x="994"
d="M508 -223q-200 0 -338 137t-138 331q0 139 66 248.5t175 167t238 57.5q89 0 170 -30t143 -84t98.5 -135.5t36.5 -177.5q0 -127 -56 -208t-148 -81q-96 0 -126 81q-21 -37 -62 -59t-91 -22q-95 0 -161.5 68.5t-66.5 170.5q0 101 66.5 168.5t161.5 67.5q90 0 143 -66v26
q0 9 6.5 15.5t15.5 6.5h76q10 0 16.5 -6.5t6.5 -15.5v-266q0 -57 38 -57q28 0 49.5 44.5t21.5 137.5q0 144 -98.5 232.5t-238.5 88.5q-95 0 -176.5 -42.5t-134 -128t-52.5 -198.5q0 -156 110.5 -263t261.5 -107q83 0 146 25q30 13 53 28q19 15 34 3l55 -41q13 -10 3 -20
q-105 -96 -304 -96zM493 358q-47 0 -77 -32.5t-30 -82.5q0 -48 30 -81t77 -33q46 0 76.5 33t30.5 81q0 50 -30.5 82.5t-76.5 32.5z" />
    <glyph glyph-name="A" unicode="A" horiz-adv-x="683"
d="M425 288l-88 264h-3l-86 -264h177zM160 20q-7 -20 -23 -20h-112q-13 0 -18.5 9.5t0.5 24.5l226 644q7 22 29 22h158q21 0 29 -22l227 -643q5 -16 -1 -25.5t-20 -9.5h-118q-17 0 -23 20l-47 142h-261z" />
    <glyph glyph-name="B" unicode="B" horiz-adv-x="679"
d="M392 700q118 0 174 -54t56 -124q0 -47 -23.5 -85.5t-68.5 -57.5q65 -23 96 -70t31 -103q0 -83 -63.5 -144.5t-172.5 -61.5h-340q-22 0 -22 22v656q0 22 22 22h311zM467 501q0 36 -25 59t-71 23h-162v-164h162q46 0 71 23t25 59zM395 308h-186v-191h186q46 0 76 27t30 69
q0 41 -30 68t-76 27z" />
    <glyph glyph-name="C" unicode="C" horiz-adv-x="739"
d="M395 -14q-156 0 -263.5 105t-107.5 259t107.5 259t263.5 105q117 0 208.5 -57.5t126.5 -158.5q7 -19 -11 -23l-114 -30q-15 -4 -23 14q-60 116 -186 116q-94 0 -155 -65t-61 -160t61 -160t155 -65q126 0 186 116q8 18 23 14l114 -30q18 -4 11 -23q-35 -101 -126.5 -158.5
t-208.5 -57.5z" />
    <glyph glyph-name="D" unicode="D" horiz-adv-x="739"
d="M356 700q161 0 259.5 -96t98.5 -253q0 -156 -98.5 -253.5t-259.5 -97.5h-275q-10 0 -16 6.5t-6 16.5v655q0 9 6 15.5t16 6.5h275zM356 138q88 0 144.5 61t56.5 152q0 92 -56 151.5t-145 59.5h-147v-424h147z" />
    <glyph glyph-name="E" unicode="E" horiz-adv-x="634"
d="M81 700h501q10 0 16.5 -6.5t6.5 -16.5v-92q0 -10 -6.5 -16.5t-16.5 -6.5h-373v-144h195q10 0 16 -6.5t6 -16.5v-88q0 -9 -6.5 -16t-15.5 -7h-195v-146h381q9 0 16 -6.5t7 -16.5v-92q0 -10 -7 -16.5t-16 -6.5h-509q-10 0 -16 6.5t-6 16.5v655q0 9 6 15.5t16 6.5z" />
    <glyph glyph-name="F" unicode="F" horiz-adv-x="602"
d="M496 359v-89q0 -9 -6.5 -16t-15.5 -7h-265v-224q0 -10 -7 -16.5t-16 -6.5h-105q-10 0 -16 6.5t-6 16.5v655q0 9 6 15.5t16 6.5h482q10 0 16.5 -6.5t6.5 -16.5v-92q0 -10 -6.5 -16.5t-16.5 -6.5h-354v-181h265q10 0 16 -6.5t6 -15.5z" />
    <glyph glyph-name="G" unicode="G" horiz-adv-x="783"
d="M399 714q119 0 214 -58.5t133 -157.5q8 -18 -11 -23l-113 -30q-16 -4 -24 14q-63 116 -198 116q-94 0 -156.5 -66t-62.5 -161q0 -98 62.5 -162t159.5 -64q61 0 112.5 30.5t81.5 85.5h-182q-10 0 -16.5 7t-6.5 16v75q0 10 6.5 16.5t16.5 6.5h305q10 0 17 -6.5t7 -16.5
v-313q0 -10 -7 -16.5t-17 -6.5h-91q-10 0 -16.5 6.5t-6.5 16.5v61q-78 -98 -226 -98q-152 0 -254 105t-102 259t108.5 259t266.5 105z" />
    <glyph glyph-name="H" unicode="H" horiz-adv-x="743"
d="M684 678v-655q0 -10 -6 -16.5t-16 -6.5h-105q-10 0 -16.5 6.5t-6.5 16.5v261h-325v-261q0 -10 -6.5 -16.5t-16.5 -6.5h-105q-10 0 -16 6.5t-6 16.5v655q0 9 6 15.5t16 6.5h105q10 0 16.5 -6.5t6.5 -15.5v-260h325v260q0 9 6.5 15.5t16.5 6.5h105q10 0 16 -6.5t6 -15.5z
" />
    <glyph glyph-name="I" unicode="I" horiz-adv-x="268"
d="M186 0h-105q-10 0 -16 6.5t-6 16.5v655q0 9 6 15.5t16 6.5h105q10 0 16.5 -6.5t6.5 -15.5v-655q0 -10 -6.5 -16.5t-16.5 -6.5z" />
    <glyph glyph-name="J" unicode="J" horiz-adv-x="611"
d="M558 238q0 -121 -78 -186.5t-193 -65.5q-116 0 -192.5 63t-76.5 183v46q0 9 6 15.5t16 6.5h105q9 0 16 -6.5t7 -15.5v-36q0 -53 30.5 -86.5t88.5 -33.5q59 0 90 33.5t31 86.5v436q0 9 6.5 15.5t16.5 6.5h105q9 0 15.5 -6.5t6.5 -15.5v-440z" />
    <glyph glyph-name="K" unicode="K" horiz-adv-x="661"
d="M657 670l-242 -305l243 -337q7 -11 3 -19.5t-14 -8.5h-126q-26 0 -38 18l-190 270h-84v-265q0 -10 -7 -16.5t-16 -6.5h-105q-10 0 -16 6.5t-6 16.5v655q0 9 6 15.5t16 6.5h105q9 0 16 -6.5t7 -15.5v-258h81l197 259q15 21 41 21h115q13 0 17.5 -10t-3.5 -20z" />
    <glyph glyph-name="L" unicode="L" horiz-adv-x="568"
d="M559 115v-92q0 -10 -6.5 -16.5t-16.5 -6.5h-455q-10 0 -16 6.5t-6 15.5v655q0 10 6 16.5t16 6.5h105q9 0 16 -6.5t7 -16.5v-539h327q10 0 16.5 -6.5t6.5 -16.5z" />
    <glyph glyph-name="M" unicode="M" horiz-adv-x="878"
d="M479 143h-82q-23 0 -32 22l-158 346v-489q0 -10 -6.5 -16t-15.5 -6h-104q-22 0 -22 22v656q0 9 6 15.5t16 6.5h176q23 0 32 -20l151 -342l152 342q10 20 33 20h171q10 0 16.5 -6.5t6.5 -15.5v-656q0 -10 -6.5 -16t-16.5 -6h-103q-22 0 -22 22v489l-159 -346
q-9 -22 -33 -22z" />
    <glyph glyph-name="N" unicode="N" horiz-adv-x="728"
d="M486 22l-277 441v-441q0 -10 -6.5 -16t-15.5 -6h-106q-22 0 -22 22v656q0 9 6 15.5t16 6.5h137q22 0 32 -18l269 -432v428q0 9 6.5 15.5t15.5 6.5h105q9 0 16 -6.5t7 -15.5v-656q0 -9 -7 -15.5t-16 -6.5h-113q-33 0 -47 22z" />
    <glyph glyph-name="O" unicode="O" horiz-adv-x="790"
d="M766 350q0 -154 -107.5 -259t-263.5 -105t-263.5 105.5t-107.5 258.5t107.5 258.5t263.5 105.5t263.5 -105t107.5 -259zM610 350q0 95 -61 160t-154 65t-154 -65t-61 -160t61 -160t154 -65t154 65t61 160z" />
    <glyph glyph-name="P" unicode="P" horiz-adv-x="615"
d="M209 23q0 -10 -6.5 -16.5t-15.5 -6.5h-106q-10 0 -16 6.5t-6 16.5v655q0 9 6 15.5t16 6.5h274q115 0 180.5 -67.5t65.5 -166.5q-1 -100 -66.5 -166.5t-179.5 -66.5h-146v-210zM209 364h129q47 1 77 29t30 74t-30 73.5t-77 27.5h-129v-204z" />
    <glyph glyph-name="Q" unicode="Q" horiz-adv-x="790"
d="M395 125q62 0 109 29l-119 105q-16 14 0 32l50 56q15 17 33 2l117 -106q25 46 25 107q0 95 -61 160t-154 65t-154 -65t-61 -160t61 -160t154 -65zM616 55q-97 -69 -221 -69q-156 0 -263.5 105.5t-107.5 258.5t107.5 258.5t263.5 105.5t263.5 -105t107.5 -259
q0 -116 -65 -210l63 -58q8 -7 8 -16t-8 -16l-49 -54q-17 -16 -33 0z" />
    <glyph glyph-name="R" unicode="R" horiz-adv-x="676"
d="M376 382q46 0 75.5 26.5t29.5 68.5t-29 66.5t-74 24.5h-169v-186h167zM641 0h-116q-24 0 -38 23l-144 238h-134v-238q0 -10 -6.5 -16.5t-16.5 -6.5h-105q-10 0 -16 6.5t-6 16.5v655q0 8 6 15t16 7h314q110 0 176.5 -61t66.5 -153q0 -37 -11.5 -73t-45 -73t-84.5 -54
l160 -256q7 -10 2 -20t-18 -10z" />
    <glyph glyph-name="S" unicode="S" horiz-adv-x="611"
d="M305 714q79 0 143 -24t100 -59q32 -29 6 -55l-49 -51q-25 -25 -57 -1q-76 58 -146 58q-46 0 -76.5 -19.5t-30.5 -52.5q0 -47 71 -66l134 -33q192 -50 192 -203q0 -90 -74.5 -156t-209.5 -66q-94 0 -164.5 29.5t-110.5 72.5q-14 14 -15.5 30.5t13.5 30.5l64 50
q25 18 51 -8q74 -72 168 -72q54 0 84 22t30 52q0 32 -24.5 50.5t-75.5 31.5l-121 30q-82 20 -127.5 70t-45.5 124q0 94 76.5 154.5t194.5 60.5z" />
    <glyph glyph-name="T" unicode="T" horiz-adv-x="620"
d="M11 585v92q0 10 6.5 16.5t15.5 6.5h554q9 0 15.5 -6.5t6.5 -16.5v-92q0 -10 -6.5 -16.5t-15.5 -6.5h-200v-539q0 -10 -6.5 -16.5t-16.5 -6.5h-109q-10 0 -16 6.5t-6 16.5v539h-200q-9 0 -15.5 6.5t-6.5 16.5z" />
    <glyph glyph-name="U" unicode="U" horiz-adv-x="692"
d="M640 252q0 -89 -43 -151t-107.5 -88.5t-143.5 -26.5t-143.5 26.5t-107.5 88.5t-43 151v426q0 9 6 15.5t16 6.5h105q9 0 16 -6.5t7 -15.5v-415q0 -65 38 -102.5t106 -37.5t106 37.5t38 102.5v415q0 9 6.5 15.5t16.5 6.5h105q9 0 15.5 -6.5t6.5 -15.5v-426z" />
    <glyph glyph-name="V" unicode="V" horiz-adv-x="679"
d="M417 0h-154q-22 0 -29 22l-226 643q-6 16 0.5 25.5t19.5 9.5h122q17 0 23 -20l170 -518h4l168 518q7 20 23 20h115q13 0 18.5 -9.5t0.5 -24.5l-226 -644q-7 -22 -29 -22z" />
    <glyph glyph-name="W" unicode="W" horiz-adv-x="1005"
d="M832 22q-3 -10 -13 -16t-15 -6h-159q-23 0 -28 22l-110 446l-111 -446q-6 -22 -28 -22h-167q-23 0 -28 22l-161 643q-4 16 3.5 25.5t20.5 9.5h119q19 0 23 -22l112 -498l124 500q7 20 24 20h136q19 0 24 -20l124 -496l112 494q4 22 23 22h112q31 0 23 -35z" />
    <glyph glyph-name="X" unicode="X" horiz-adv-x="642"
d="M176 18q-13 -18 -32 -18h-126q-16 0 -20 11.5t3 20.5l219 324l-207 312q-8 11 -2 21.5t19 10.5h126q19 0 30 -18l140 -219l137 219q11 18 30 18h120q15 0 19.5 -10t-3.5 -21l-205 -312l217 -325q7 -11 2.5 -21.5t-19.5 -10.5h-127q-18 0 -31 19l-147 223z" />
    <glyph glyph-name="Y" unicode="Y" horiz-adv-x="652"
d="M251 23v241l-242 402q-8 12 -2.5 23t17.5 11h131q18 0 27 -17l146 -251h2l145 251q9 17 26 17h126q13 0 18.5 -10t-2.5 -24l-242 -402v-241q0 -9 -6.5 -16t-15.5 -7h-106q-9 0 -15.5 6.5t-6.5 16.5z" />
    <glyph glyph-name="Z" unicode="Z" horiz-adv-x="613"
d="M574 0h-535q-10 0 -16.5 6.5t-6.5 16.5v69q0 16 14 32l346 443h-316q-10 0 -16.5 6.5t-6.5 15.5v88q0 9 6.5 16t16.5 7h490q9 0 15.5 -7t6.5 -16v-82q0 -16 -10 -28l-335 -434h347q9 0 15.5 -6.5t6.5 -15.5v-88q0 -10 -6.5 -16.5t-15.5 -6.5z" />
    <glyph glyph-name="bracketleft" unicode="[" horiz-adv-x="348"
d="M335 728v-63q0 -9 -6.5 -15.5t-15.5 -6.5h-110v-641h110q9 0 15.5 -6t6.5 -15v-63q0 -9 -6.5 -15.5t-15.5 -6.5h-225q-9 0 -15.5 6.5t-6.5 14.5v812q0 9 6.5 15t15.5 6h225q9 0 15.5 -6.5t6.5 -15.5z" />
    <glyph glyph-name="backslash" unicode="\" horiz-adv-x="477"
d="M131 684l317 -653q6 -11 2 -21t-19 -10h-60q-21 0 -29 18l-313 652q-6 11 -1 20.5t19 9.5h58q18 0 26 -16z" />
    <glyph glyph-name="bracketright" unicode="]" horiz-adv-x="348"
d="M13 728q0 9 6.5 15.5t15.5 6.5h225q9 0 15.5 -6t6.5 -15v-812q0 -8 -7 -14.5t-15 -6.5h-225q-9 0 -15.5 6.5t-6.5 15.5v63q0 9 6.5 15t15.5 6h110v641h-110q-9 0 -15.5 6.5t-6.5 15.5v63z" />
    <glyph glyph-name="asciicircum" unicode="^" horiz-adv-x="582"
d="M163 210h-108q-16 0 -21.5 9.5t0.5 23.5l169 435q9 22 28 22h121q19 0 28 -22l168 -435q5 -15 -0.5 -24t-21.5 -9h-108q-24 0 -30 21l-96 284l-99 -284q-6 -21 -30 -21z" />
    <glyph glyph-name="underscore" unicode="_" horiz-adv-x="343"
d="M315 -186h-287q-10 0 -16.5 7t-6.5 16v89q0 10 6.5 16t16.5 6h287q10 0 16.5 -6t6.5 -16v-89q0 -9 -6.5 -16t-16.5 -7z" />
    <glyph glyph-name="grave" unicode="`" horiz-adv-x="278"
d="M56 741h124q21 0 26 -19l40 -154q8 -32 -26 -32h-66q-15 0 -27 16l-91 156q-7 10 -1 21.5t21 11.5z" />
    <glyph glyph-name="a" unicode="a"
d="M167 243q0 -51 34 -87.5t85 -36.5t85 36.5t34 87.5t-34 87.5t-85 36.5t-85 -36.5t-34 -87.5zM21 244q0 114 72.5 185.5t171.5 71.5q47 0 84.5 -18.5t55.5 -47.5v30q0 9 6.5 15.5t14.5 6.5h101q9 0 15 -6.5t6 -15.5v-444q0 -9 -6 -15t-15 -6h-101q-8 0 -14.5 6t-6.5 15v31
q-18 -29 -55.5 -47.5t-85.5 -18.5q-98 0 -170.5 72t-72.5 186z" />
    <glyph glyph-name="b" unicode="b"
d="M187 438q19 28 58 45.5t86 17.5q98 0 168.5 -71t70.5 -186q0 -114 -71.5 -186t-170.5 -72q-45 0 -83 17t-59 46v-28q0 -9 -6 -15t-15 -6h-100q-10 0 -16 6t-6 15v658q0 9 6 15t16 6h101q8 0 14.5 -6t6.5 -15v-241zM186 243q0 -51 34.5 -87.5t84.5 -36.5q51 0 85.5 36.5
t34.5 87.5t-34.5 87.5t-85.5 36.5q-50 0 -84.5 -36.5t-34.5 -87.5z" />
    <glyph glyph-name="c" unicode="c" horiz-adv-x="519"
d="M502 99q-32 -51 -89.5 -82t-130.5 -31q-111 0 -186.5 74t-75.5 183t75.5 183.5t186.5 74.5q73 0 130.5 -31t89.5 -82q6 -11 2 -22t-13 -17l-58 -44q-23 -18 -44 7q-47 55 -105 55q-51 0 -84.5 -36t-33.5 -88t33.5 -87.5t84.5 -35.5q59 0 105 55q20 24 44 7l58 -44
q23 -17 11 -39z" />
    <glyph glyph-name="d" unicode="d"
d="M167 243q0 -51 34 -87.5t85 -36.5t85 36.5t34 87.5t-34 87.5t-85 36.5t-85 -36.5t-34 -87.5zM21 244q0 114 71.5 185.5t169.5 71.5q48 0 86 -18t56 -46v242q0 9 6.5 15t15.5 6h101q9 0 15 -6t6 -15v-658q0 -9 -6 -15t-15 -6h-101q-8 0 -14.5 6t-6.5 15v31
q-47 -66 -141 -66q-98 0 -170.5 72t-72.5 186z" />
    <glyph glyph-name="e" unicode="e" horiz-adv-x="543"
d="M279 501q111 0 180.5 -72.5t69.5 -170.5v-27q0 -23 -25 -23h-334q5 -45 37.5 -72.5t76.5 -27.5q62 0 104 47q14 14 26 5l77 -50q18 -12 4 -30q-72 -94 -214 -94q-114 0 -187 73t-73 182t73.5 184.5t184.5 75.5zM387 298q-9 42 -39 64.5t-68 22.5q-37 0 -67 -23.5
t-40 -63.5h214z" />
    <glyph glyph-name="f" unicode="f" horiz-adv-x="361"
d="M32 487h64v68q0 86 52.5 130.5t125.5 44.5q37 0 77 -13t64 -36q17 -15 2 -37l-43 -60q-13 -20 -41 -2q-23 16 -44 16t-35 -14.5t-14 -42.5v-54h93q9 0 15.5 -6.5t6.5 -15.5v-77q0 -8 -6.5 -15t-15.5 -7h-93v-344q0 -9 -6 -15.5t-15 -6.5h-101q-9 0 -15.5 6.5t-6.5 15.5
v344h-64q-9 0 -15.5 7t-6.5 15v77q0 9 6.5 15.5t15.5 6.5z" />
    <glyph glyph-name="g" unicode="g"
d="M167 248q0 -52 34 -86.5t84 -34.5q51 0 85 34.5t34 86.5q0 51 -34 86t-85 35q-50 0 -84 -35t-34 -86zM288 -108q56 0 86.5 30t30.5 80v57q-17 -27 -54.5 -44.5t-83.5 -17.5q-103 0 -174.5 69t-71.5 182q0 112 71 182.5t169 70.5q48 0 86.5 -18.5t57.5 -48.5v31
q0 9 6.5 15t14.5 6h101q9 0 15 -6t6 -15v-468q0 -103 -71 -166t-193 -63q-96 0 -163.5 40.5t-84.5 108.5q-4 17 10 21l105 30q18 3 25 -10q10 -27 38 -46.5t74 -19.5z" />
    <glyph glyph-name="h" unicode="h" horiz-adv-x="592"
d="M409 20v231q0 53 -29 85t-80 32t-82 -32.5t-31 -84.5v-231q0 -9 -6.5 -14.5t-15.5 -5.5h-101q-9 0 -15 6t-6 15v658q0 9 6 15t15 6h101q9 0 15.5 -5.5t6.5 -14.5v-244q54 65 158 65q95 0 152 -60t57 -151v-270q0 -9 -6.5 -14.5t-15.5 -5.5h-101q-9 0 -15.5 5.5t-6.5 14.5
z" />
    <glyph glyph-name="i" unicode="i" horiz-adv-x="230"
d="M116 539q-36 0 -61.5 26t-25.5 61q0 36 25.5 62t61.5 26q35 0 60.5 -26t25.5 -62q0 -35 -25.5 -61t-60.5 -26zM166 0h-101q-9 0 -15.5 6.5t-6.5 15.5v443q0 9 6.5 15.5t15.5 6.5h101q9 0 15 -6.5t6 -15.5v-443q0 -9 -6 -15.5t-15 -6.5z" />
    <glyph glyph-name="j" unicode="j" horiz-adv-x="230"
d="M115 539q-35 0 -61 26t-26 61q0 36 26 62t61 26q36 0 61.5 -26t25.5 -62q0 -35 -25.5 -61t-61.5 -26zM65 487h100q9 0 15.5 -7t6.5 -16v-512q0 -93 -52.5 -138.5t-126.5 -45.5q-94 0 -139 48q-16 16 -2 37l41 55q16 22 40 6q23 -15 46 -15q19 0 34 13.5t15 43.5v508
q0 9 6.5 16t15.5 7z" />
    <glyph glyph-name="k" unicode="k" horiz-adv-x="509"
d="M187 21q0 -9 -6 -15t-15 -6h-101q-9 0 -15.5 6t-6.5 15v658q0 9 6.5 15t15.5 6h101q9 0 15 -6t6 -15v-362h35l111 153q10 17 29 17h108q15 0 19.5 -11t-4.5 -24l-139 -181l162 -235q9 -13 3.5 -24.5t-22.5 -11.5h-113q-19 0 -30 18l-121 183h-38v-180z" />
    <glyph glyph-name="l" unicode="l" horiz-adv-x="274"
d="M168 0q-65 0 -96 33t-31 89v556q0 9 6 15.5t16 6.5h100q10 0 16 -6.5t6 -15.5v-527q0 -14 8 -22.5t22 -8.5h31q21 0 21 -21v-72q0 -27 -28 -27h-71z" />
    <glyph glyph-name="m" unicode="m" horiz-adv-x="903"
d="M187 261v-241q0 -9 -6.5 -14.5t-15.5 -5.5h-101q-9 0 -15 6t-6 15v444q0 9 6 15.5t15 6.5h101q8 0 15 -6t7 -14v-31q23 28 62.5 46.5t84.5 18.5q105 0 152 -79q64 79 169 79q102 0 156 -61t54 -144v-276q0 -9 -6.5 -14.5t-15.5 -5.5h-101q-9 0 -15.5 5.5t-6.5 14.5v241
q0 47 -24 77t-70 30q-47 0 -73.5 -30.5t-26.5 -76.5v-241q0 -9 -6.5 -14.5t-15.5 -5.5h-100q-9 0 -15.5 5.5t-6.5 14.5v241q0 47 -24 77t-71 30q-46 0 -73 -30.5t-27 -76.5z" />
    <glyph glyph-name="n" unicode="n" horiz-adv-x="592"
d="M409 20v231q0 53 -29 85t-80 32t-82 -32.5t-31 -84.5v-231q0 -9 -6.5 -14.5t-15.5 -5.5h-101q-9 0 -15 6t-6 15v444q0 9 6 15.5t15 6.5h101q8 0 15 -6t7 -14v-31q54 65 158 65q95 0 152 -60t57 -151v-270q0 -9 -6.5 -14.5t-15.5 -5.5h-101q-9 0 -15.5 5.5t-6.5 14.5z" />
    <glyph glyph-name="o" unicode="o" horiz-adv-x="569"
d="M20 242q0 108 77 183.5t187 75.5t187.5 -75t77.5 -184q0 -108 -77 -182t-188 -74q-110 0 -187 74t-77 182zM166 243q0 -51 34 -87t84 -36q51 0 85 36t34 87t-34 87.5t-85 36.5q-50 0 -84 -36.5t-34 -87.5z" />
    <glyph glyph-name="p" unicode="p"
d="M186 243q0 -52 34.5 -88t85.5 -36t85 36t34 88q0 51 -34 87.5t-85 36.5t-85.5 -36.5t-34.5 -87.5zM185 435q49 66 146 66q99 0 169 -71t70 -186t-70.5 -186.5t-170.5 -71.5q-43 0 -82.5 15.5t-59.5 44.5v-242q0 -9 -6.5 -15t-14.5 -6h-102q-9 0 -15 6t-6 15v661
q0 9 6 15.5t15 6.5h100q9 0 15 -6.5t6 -15.5v-30z" />
    <glyph glyph-name="q" unicode="q"
d="M21 244q0 114 72.5 185.5t170.5 71.5q48 0 85.5 -18t55.5 -46v28q0 9 6.5 15.5t14.5 6.5h101q9 0 15 -6.5t6 -15.5v-661q0 -9 -6 -15t-15 -6h-101q-9 0 -15 6t-6 15v248q-47 -66 -141 -66q-98 0 -170.5 72t-72.5 186zM167 243q0 -52 34 -88t85 -36t85 36t34 88
q0 51 -34 87.5t-85 36.5t-85 -36.5t-34 -87.5z" />
    <glyph glyph-name="r" unicode="r" horiz-adv-x="344"
d="M296 494h14q24 0 24 -27v-99q0 -14 -8.5 -20.5t-17.5 -6.5h-26q-95 0 -95 -105v-216q0 -9 -6.5 -14.5t-15.5 -5.5h-101q-9 0 -15 6t-6 15v444q0 9 6 15.5t15 6.5h96q8 0 14.5 -6t6.5 -14v-40q42 67 115 67z" />
    <glyph glyph-name="s" unicode="s" horiz-adv-x="478"
d="M238 501q66 0 116.5 -18.5t77.5 -43.5q24 -19 2 -44l-37 -42q-18 -21 -48 -3q-59 39 -111 39q-28 0 -45.5 -10.5t-17.5 -25.5q0 -29 56 -40l77 -15q151 -29 151 -147q0 -72 -61 -118.5t-159 -46.5q-108 0 -185 54q-62 43 -21 75l44 34q24 18 49 -3q56 -49 118 -49
q32 0 49.5 12t17.5 29t-16.5 26.5t-53.5 16.5l-80 17q-61 12 -96.5 49t-35.5 95q0 68 57 113.5t152 45.5z" />
    <glyph glyph-name="t" unicode="t" horiz-adv-x="410"
d="M90 145v221h-64q-9 0 -15 6.5t-6 15.5v77q0 9 6 15.5t15 6.5h64v129q0 10 6.5 16t15.5 6h102q8 0 14.5 -6t6.5 -16v-129h137q9 0 16 -6.5t7 -15.5v-77q0 -8 -7 -15t-16 -7h-137v-187q0 -32 15 -44t34 -12q20 0 44 14q27 17 41 -4l35 -56q12 -19 -3 -36q-50 -52 -144 -52
q-70 0 -118.5 39t-48.5 117z" />
    <glyph glyph-name="u" unicode="u" horiz-adv-x="569"
d="M182 467v-251q0 -50 25 -79t74 -29q48 0 74.5 29t26.5 77v253q0 8 6.5 14t14.5 6h101q10 0 16 -6.5t6 -15.5v-444q0 -9 -6 -15t-16 -6h-101q-9 0 -15 5.5t-6 14.5v31q-54 -65 -146 -65q-91 0 -144.5 56.5t-53.5 149.5v275q0 8 7 14t15 6h100q9 0 15.5 -6t6.5 -14z" />
    <glyph glyph-name="v" unicode="v" horiz-adv-x="522"
d="M336 0h-150q-21 0 -28 22l-149 431q-5 13 1.5 23.5t19.5 10.5h110q20 0 26 -22l101 -328l89 328q6 22 27 22h108q13 0 20 -10.5t2 -23.5l-149 -431q-7 -22 -28 -22z" />
    <glyph glyph-name="w" unicode="w" horiz-adv-x="784"
d="M317 22q-5 -22 -27 -22h-119q-20 0 -27 22l-139 433q-4 15 1.5 23.5t19.5 8.5h107q20 0 26 -22l76 -291l81 292q6 21 27 21h106q21 0 27 -21l81 -292l79 291q6 22 26 22h95q13 0 19 -8.5t1 -23.5l-138 -433q-7 -22 -28 -22h-117q-22 0 -28 22l-74 273z" />
    <glyph glyph-name="x" unicode="x" horiz-adv-x="519"
d="M160 18q-12 -18 -32 -18h-106q-12 0 -16.5 9t2.5 19l159 224l-155 205q-7 10 -2.5 20t15.5 10h123q19 0 32 -18l92 -120l81 120q11 18 32 18h104q11 0 15.5 -9.5t-2.5 -19.5l-151 -215l163 -215q7 -10 3 -19t-17 -9h-123q-20 0 -33 18l-97 128z" />
    <glyph glyph-name="y" unicode="y" horiz-adv-x="526"
d="M157 -232q-92 0 -148 51q-17 15 -2 38l36 52q17 25 44 6q31 -23 60 -23q45 0 61 46l22 62h-51q-20 0 -27 21l-143 432q-10 34 23 34h117q17 0 23 -23l97 -332l90 332q6 23 27 23h113q31 0 19 -34l-166 -535q-22 -71 -71.5 -110.5t-123.5 -39.5z" />
    <glyph glyph-name="z" unicode="z" horiz-adv-x="476"
d="M434 370l-220 -246h221q9 0 15 -6t6 -16v-81q0 -9 -6.5 -15t-14.5 -6h-393q-9 0 -15.5 6.5t-6.5 15.5v68q0 15 10 25l223 248h-201q-9 0 -15.5 6.5t-6.5 15.5v79q0 9 6.5 16t15.5 7h371q8 0 15 -7t7 -16v-67q0 -16 -11 -27z" />
    <glyph glyph-name="braceleft" unicode="{" horiz-adv-x="349"
d="M235 40q0 -37 34 -37h42q8 0 15 -6.5t7 -15.5v-62q0 -9 -7 -15.5t-15 -6.5h-96q-128 0 -128 131v210q0 22 -8 30t-27 8h-11q-24 0 -24 26v54q0 27 24 27h11q19 0 27 8t8 29v199q0 131 128 131h96q8 0 15 -6.5t7 -15.5v-63q0 -8 -7 -15t-15 -7h-42q-18 0 -26 -8.5
t-8 -28.5v-168q0 -26 -8 -47t-18 -31.5t-23.5 -18t-20 -9.5t-10.5 -3q4 -1 10.5 -3t20 -9.5t23.5 -18t18 -31.5t8 -47v-180z" />
    <glyph glyph-name="bar" unicode="|" horiz-adv-x="217"
d="M128 -125h-39q-9 0 -15.5 6.5t-6.5 15.5v907q0 9 6.5 15t15.5 6h39q10 0 16 -6t6 -15v-907q0 -9 -6 -15.5t-16 -6.5z" />
    <glyph glyph-name="braceright" unicode="}" horiz-adv-x="349"
d="M114 40v180q0 26 8 47t18 31.5t23.5 18t20 9.5t10.5 3q-4 1 -10.5 3t-20 9.5t-23.5 18t-18 31.5t-8 47v168q0 20 -8 28.5t-27 8.5h-41q-8 0 -15 7t-7 15v63q0 9 7 15.5t15 6.5h95q129 0 129 -131v-199q0 -21 8 -29t27 -8h11q24 0 24 -27v-54q0 -26 -24 -26h-11
q-19 0 -27 -8t-8 -30v-210q0 -131 -129 -131h-95q-8 0 -15 6.5t-7 15.5v62q0 9 7 15.5t15 6.5h41q35 0 35 37z" />
    <glyph glyph-name="asciitilde" unicode="~" horiz-adv-x="606"
d="M448 265q-32 -1 -141 16t-123 17q-24 0 -44.5 -16t-29.5 -17q-12 -3 -25 12l-36 49q-12 17 -11 31q2 22 41.5 51t81.5 29q29 0 137.5 -16.5t126.5 -16.5q24 0 45.5 16t30.5 17q13 3 26 -12l31 -49q12 -17 11 -31q-3 -22 -41 -51t-80 -29z" />
    <glyph glyph-name="uni00A0" unicode="&#xa0;" horiz-adv-x="200"
 />
    <glyph glyph-name="exclamdown" unicode="&#xa1;" horiz-adv-x="271"
d="M135 501q39 0 67 -27.5t28 -66.5t-27.5 -67t-67.5 -28q-38 0 -65.5 28t-27.5 67q0 38 27.5 66t65.5 28zM212 -191q0 -9 -7 -15.5t-16 -6.5h-106q-10 0 -16.5 6.5t-6.5 15.5l2 416q0 9 6 15.5t16 6.5h103q10 0 16.5 -6.5t6.5 -15.5z" />
    <glyph glyph-name="cent" unicode="&#xa2;" horiz-adv-x="551"
d="M335 -72q0 -10 -7 -17t-17 -7h-29q-10 0 -17 7t-7 17v61q-97 13 -160.5 84t-63.5 170t63.5 170.5t160.5 84.5v64q0 10 7 16.5t17 6.5h29q10 0 17 -6.5t7 -16.5v-63q120 -16 181 -111q6 -11 2 -22t-13 -17l-58 -44q-23 -18 -44 7q-35 40 -68 50v-237q35 10 68 50
q20 24 44 7l58 -44q23 -17 11 -39q-61 -95 -181 -111v-60zM180 243q0 -40 21.5 -72t56.5 -44v233q-35 -13 -56.5 -45t-21.5 -72z" />
    <glyph glyph-name="sterling" unicode="&#xa3;" horiz-adv-x="637"
d="M590 23q0 -10 -6.5 -16.5t-16.5 -6.5h-504q-10 0 -16.5 6.5t-6.5 16.5v96q0 10 6.5 16t16.5 6h59v126h-59q-10 0 -16.5 7t-6.5 16v76q0 10 6.5 16.5t16.5 6.5h59v89q0 104 69.5 170t176.5 66q81 0 141.5 -33t93.5 -88q10 -18 -12 -35l-65 -47q-23 -17 -44 7
q-48 62 -105 62q-51 0 -78 -33t-27 -85v-73h156q9 0 16 -6.5t7 -16.5v-76q0 -9 -7 -16t-16 -7h-156v-126h295q10 0 16.5 -6t6.5 -16v-96z" />
    <glyph glyph-name="currency" unicode="&#xa4;" horiz-adv-x="770"
d="M385 562q-57 0 -108 -31l108 -108l106 108q-49 31 -106 31zM177 350q0 -60 31 -108l105 108l-105 109q-31 -50 -31 -109zM592 350q0 58 -30 109l-107 -109l107 -108q30 49 30 108zM385 139q59 0 106 30l-106 109l-108 -109q49 -30 108 -30zM719 350q-2 -111 -69 -196
l70 -70q16 -16 1 -32l-41 -39q-16 -16 -32 0l-72 72q-85 -59 -191 -59q-105 0 -193 59l-71 -72q-17 -17 -32 0l-40 39q-17 15 0 32l69 69q-68 89 -68 197q0 109 68 198l-69 69q-17 15 0 31l40 40q15 17 32 0l71 -72q86 58 193 58q108 0 191 -58l72 72q16 16 32 0l41 -40
q6 -6 6 -15t-7 -16l-70 -70q69 -88 69 -197z" />
    <glyph glyph-name="yen" unicode="&#xa5;" horiz-adv-x="698"
d="M425 23q0 -10 -7 -16.5t-16 -6.5h-105q-10 0 -16 6.5t-6 16.5v133h-161q-9 0 -15.5 6.5t-6.5 16.5v57q0 9 6.5 16t15.5 7h161v5l-34 55h-127q-9 0 -15.5 6.5t-6.5 16.5v57q0 9 6.5 16t15.5 7h66l-148 244q-7 12 -2 23t18 11h131q17 0 26 -17l146 -251h3l145 251
q9 17 26 17h125q13 0 19 -10t-2 -24l-147 -244h63q9 0 15.5 -7t6.5 -16v-57q0 -10 -6.5 -16.5t-15.5 -6.5h-125l-33 -55v-5h158q9 0 15.5 -7t6.5 -16v-57q0 -10 -6.5 -16.5t-15.5 -6.5h-158v-133z" />
    <glyph glyph-name="brokenbar" unicode="&#xa6;" horiz-adv-x="221"
d="M152 804v-353q0 -9 -6 -15t-15 -6h-40q-9 0 -15.5 6t-6.5 15v353q0 9 6.5 15t15.5 6h40q9 0 15 -6t6 -15zM152 249v-352q0 -9 -6 -15.5t-15 -6.5h-40q-9 0 -15.5 6.5t-6.5 15.5v352q0 10 6.5 16t15.5 6h40q9 0 15 -6t6 -16z" />
    <glyph glyph-name="section" unicode="&#xa7;" horiz-adv-x="777"
d="M460 155q53 -24 87 -56q48 26 48 74q0 38 -31 65t-97 56l-150 68q-51 22 -88 57q-47 -23 -47 -74q0 -38 31.5 -65t96.5 -56zM364 -264q-73 0 -135.5 29.5t-93.5 68.5q-26 33 -2 53l60 52q25 20 47 -4q58 -63 124 -63q39 0 63.5 20t24.5 49q0 32 -22.5 55t-73.5 46
l-177 79q-154 70 -154 208q0 58 35 113t107 86q-3 21 -3 43q1 90 70.5 150.5t178.5 60.5q73 0 135 -29t93 -68q26 -34 2 -54l-60 -51q-24 -21 -47 4q-59 62 -124 62q-39 0 -63.5 -20t-24.5 -49q0 -32 22.5 -55t73.5 -46l178 -79q72 -32 112.5 -85t40.5 -123
q0 -58 -34.5 -113t-107.5 -87q4 -26 4 -42q-2 -91 -71 -151t-178 -60z" />
    <glyph glyph-name="dieresis" unicode="&#xa8;" horiz-adv-x="448"
d="M26 621q0 37 26.5 63t62.5 26q37 0 63 -26t26 -63t-26 -63t-63 -26q-36 0 -62.5 26t-26.5 63zM243 621q0 37 26.5 63t62.5 26q37 0 63 -26t26 -63t-26 -63t-63 -26q-36 0 -62.5 26t-26.5 63z" />
    <glyph glyph-name="copyright" unicode="&#xa9;" horiz-adv-x="920"
d="M32 350q0 175 124 296t304 121t304 -121t124 -296t-124 -295.5t-304 -120.5t-304 120.5t-124 295.5zM802 350q0 145 -98 243.5t-244 98.5t-244 -98.5t-98 -243.5q0 -144 98 -242.5t244 -98.5t244 98.5t98 242.5zM462 467q-50 0 -81 -33t-31 -83q0 -49 31.5 -82t80.5 -33
q51 0 95 51q18 23 43 7l61 -41q24 -15 13 -38q-31 -51 -87 -82t-128 -31q-109 0 -182 71.5t-73 177.5q0 107 73 178.5t182 71.5q72 0 128 -31t87 -82q11 -23 -13 -38l-61 -41q-25 -16 -43 7q-44 51 -95 51z" />
    <glyph glyph-name="ordfeminine" unicode="&#xaa;" horiz-adv-x="463"
d="M223 620q-35 0 -59 -25t-24 -60q0 -36 24 -61t59 -25q34 0 57.5 25t23.5 61q0 35 -23.5 60t-57.5 25zM305 379v18q-28 -43 -97 -43q-70 0 -121 50.5t-51 130.5t51 130.5t121 50.5q68 0 97 -43v17q0 16 16 16h70q16 0 16 -16v-311q0 -16 -16 -16h-70q-16 0 -16 16z
M389 222h-311q-17 0 -17 17v64q0 18 17 18h311q7 0 12.5 -5.5t5.5 -12.5v-64q0 -17 -18 -17z" />
    <glyph glyph-name="guillemotleft" unicode="&#xab;" horiz-adv-x="551"
d="M276 8h-98q-21 0 -32 18l-116 203q-10 17 0 33l116 204q10 17 32 17h98q9 0 13.5 -9t0.5 -19l-105 -210l105 -208q4 -10 -0.5 -19.5t-13.5 -9.5zM503 8h-97q-21 0 -32 18l-116 203q-10 16 0 33l116 204q10 17 32 17h97q9 0 14 -9t1 -19l-105 -210l105 -208
q4 -10 -1 -19.5t-14 -9.5z" />
    <glyph glyph-name="logicalnot" unicode="&#xac;" horiz-adv-x="623"
d="M560 513v-326q0 -10 -6 -16.5t-16 -6.5h-104q-10 0 -16.5 6.5t-6.5 16.5v207h-359q-10 0 -16.5 6.5t-6.5 15.5v97q0 10 6.5 16.5t16.5 6.5h486q10 0 16 -6.5t6 -16.5z" />
    <glyph glyph-name="registered" unicode="&#xae;" horiz-adv-x="906"
d="M32 350q0 175 122.5 296t299.5 121q176 0 298 -121t122 -296t-122 -295.5t-298 -120.5q-177 0 -299.5 120.5t-122.5 295.5zM790 350q0 144 -97 243t-239 99q-144 0 -240.5 -99t-96.5 -243t96.5 -242.5t240.5 -98.5q142 0 239 98.5t97 242.5zM557 427q0 31 -20 50t-51 19
h-87v-138h87q31 1 51 20t20 49zM383 103h-86q-17 0 -17 16v461q0 7 5 12t12 5h194q88 0 139 -50t51 -120q0 -48 -26 -89t-73 -62l87 -147q6 -11 2 -18t-15 -7h-89q-21 0 -33 19l-75 135h-60v-139q0 -16 -16 -16z" />
    <glyph glyph-name="macron" unicode="&#xaf;" horiz-adv-x="496"
d="M405 553h-315q-9 0 -15.5 6.5t-6.5 16.5v76q0 9 6.5 15.5t15.5 6.5h315q10 0 16.5 -6.5t6.5 -15.5v-76q0 -10 -6.5 -16.5t-16.5 -6.5z" />
    <glyph glyph-name="degree" unicode="&#xb0;" horiz-adv-x="384"
d="M192 389q-69 0 -118 47.5t-49 115.5t49 115t118 47t118 -47t49 -115t-49 -115.5t-118 -47.5zM192 631q-33 0 -55 -22.5t-22 -56.5t22 -57t55 -23t55 23t22 57t-22 56.5t-55 22.5z" />
    <glyph glyph-name="plusminus" unicode="&#xb1;" horiz-adv-x="607"
d="M251 682h104q10 0 16.5 -6.5t6.5 -16.5v-175h169q9 0 15.5 -6.5t6.5 -16.5v-97q0 -9 -6.5 -15.5t-15.5 -6.5h-169v-176q0 -10 -6.5 -16.5t-16.5 -6.5h-104q-10 0 -16.5 6.5t-6.5 16.5v176h-168q-9 0 -15.5 6.5t-6.5 15.5v97q0 10 6.5 16.5t15.5 6.5h168v175
q0 10 6.5 16.5t16.5 6.5zM569 119v-96q0 -10 -6.5 -16.5t-15.5 -6.5h-487q-9 0 -15.5 6.5t-6.5 16.5v96q0 10 6.5 16t15.5 6h487q9 0 15.5 -6t6.5 -16z" />
    <glyph glyph-name="twosuperior" unicode="&#xb2;" horiz-adv-x="307"
d="M274 499h-236q-12 0 -12 11v42q0 10 8 18l98 82q33 27 48.5 46.5t15.5 40.5q0 19 -14 31.5t-34 12.5q-39 0 -58 -44q-8 -18 -24 -12l-40 15q-12 5 -9 18q11 40 47 68t89 28t89 -31t36 -81q0 -38 -23 -69t-68 -67l-49 -38h136q12 0 12 -11v-48q0 -12 -12 -12z" />
    <glyph glyph-name="threesuperior" unicode="&#xb3;" horiz-adv-x="308"
d="M153 790q-35 0 -54 -35q-7 -11 -18 -6l-37 17q-13 6 -7 20q10 27 42 48.5t79 21.5t79 -25t32 -66q0 -24 -13 -44t-34 -29q29 -7 47.5 -30t18.5 -57q0 -51 -39 -82t-98 -31q-61 0 -99 32t-38 84v7q0 12 11 12h53q13 0 13 -12v-3q0 -24 16 -39t44 -15q26 0 41 14t15 35
q0 20 -15 32.5t-41 12.5h-12q-11 0 -11 12v37q0 12 11 12h12q19 0 32 11t13 28t-12 27.5t-31 10.5z" />
    <glyph glyph-name="acute" unicode="&#xb4;" horiz-adv-x="278"
d="M224 741q16 0 21.5 -11.5t-1.5 -21.5l-91 -156q-12 -16 -27 -16h-66q-32 0 -26 32l40 154q5 19 26 19h124z" />
    <glyph glyph-name="mu" unicode="&#xb5;" horiz-adv-x="616"
d="M65 467q0 8 6.5 14t15.5 6h100q8 0 15 -6t7 -14v-251q0 -50 24.5 -79t73.5 -29q48 0 74 29t26 77v253q0 8 7 14t15 6h102q9 0 15 -6.5t6 -15.5v-444q0 -9 -6 -15t-15 -6h-102q-8 0 -15 5.5t-7 14.5v31q-46 -65 -129 -65q-61 0 -93 29v-151q0 -9 -6 -15.5t-15 -6.5h-77
q-9 0 -15.5 6.5t-6.5 15.5v603z" />
    <glyph glyph-name="paragraph" unicode="&#xb6;" horiz-adv-x="639"
d="M29 471q0 96 61.5 162.5t159.5 66.5h286q10 0 16.5 -6.5t6.5 -15.5v-655q0 -10 -6.5 -16.5t-16.5 -6.5h-65q-9 0 -16 6.5t-7 16.5v585h-92v-586q0 -9 -7 -15.5t-16 -6.5h-66q-9 0 -15.5 6t-6.5 16v231h-4q-98 0 -155 63t-57 155z" />
    <glyph glyph-name="periodcentered" unicode="&#xb7;" horiz-adv-x="262"
d="M131 254q-41 0 -70 29t-29 70t29 70t70 29t70 -29t29 -70t-29 -70t-70 -29z" />
    <glyph glyph-name="cedilla" unicode="&#xb8;" horiz-adv-x="272"
d="M100 23l149 -20l-76 -152q-7 -14 -28 -14h-78q-12 0 -17.5 8t-1.5 20z" />
    <glyph glyph-name="onesuperior" unicode="&#xb9;" horiz-adv-x="191"
d="M11 753v41q0 13 12 13h14q33 0 47 30q6 13 20 13h32q13 0 13 -12v-327q0 -12 -13 -12h-54q-4 0 -8 3.5t-4 8.5v231h-47q-4 0 -8 3.5t-4 7.5z" />
    <glyph glyph-name="ordmasculine" unicode="&#xba;" horiz-adv-x="449"
d="M224 353q-77 0 -131 52.5t-54 127.5q0 76 54 129.5t131 53.5q78 0 132 -53t54 -130q0 -76 -54 -128t-132 -52zM224 619q-35 0 -58.5 -24.5t-23.5 -60.5t23.5 -60.5t58.5 -24.5t59 25t24 60t-24 60t-59 25zM379 222h-310q-16 0 -16 17v64q0 18 16 18h310q17 0 17 -18v-64
q0 -17 -17 -17z" />
    <glyph glyph-name="guillemotright" unicode="&#xbb;" horiz-adv-x="550"
d="M521 229l-116 -203q-11 -18 -32 -18h-98q-9 0 -13.5 9.5t-0.5 19.5l104 208l-104 210q-5 10 0 19t14 9h98q22 0 32 -17l116 -204q8 -16 0 -33zM293 229l-116 -203q-11 -18 -32 -18h-97q-9 0 -14 9t0 20l104 208l-104 210q-6 11 -1 19.5t15 8.5h97q22 0 32 -17l116 -204
q8 -16 0 -33z" />
    <glyph glyph-name="onequarter" unicode="&#xbc;" horiz-adv-x="675"
d="M575 667l-449 -648q-12 -19 -32 -19h-20q-16 0 -21 11t4 22l449 648q12 19 32 19h20q16 0 21 -11t-4 -22zM34 603v41q0 13 12 13h14q33 0 47 30q6 13 20 13h32q13 0 13 -12v-327q0 -12 -13 -12h-54q-5 0 -8.5 3.5t-3.5 8.5v231h-47q-4 0 -8 3.5t-4 7.5zM576 0h-53
q-5 0 -9 3.5t-4 8.5v73h-156q-5 0 -9 3.5t-4 8.5v39q0 18 8 28l131 177q7 10 17 10h79q5 0 9 -4t4 -8v-191h45q12 0 12 -13v-38q0 -12 -12 -12h-45v-73q0 -4 -4 -8t-9 -4zM415 148h95v127z" />
    <glyph glyph-name="onehalf" unicode="&#xbd;" horiz-adv-x="707"
d="M567 667l-449 -648q-12 -19 -32 -19h-20q-16 0 -21 11t4 22l449 648q12 19 32 19h20q16 0 21 -11t-4 -22zM33 603v41q0 13 12 13h14q33 0 47 30q6 13 20 13h32q13 0 13 -12v-327q0 -12 -13 -12h-54q-4 0 -8 3.5t-4 8.5v231h-47q-4 0 -8 3.5t-4 7.5zM666 0h-236
q-12 0 -12 11v42q0 10 8 18l98 82q33 27 48.5 46.5t15.5 40.5q0 19 -14 31.5t-34 12.5q-39 0 -58 -44q-8 -18 -24 -12l-40 15q-12 5 -9 18q11 39 47 67.5t89 28.5t89 -31t36 -81q0 -38 -23 -69t-68 -67l-49 -38h136q12 0 12 -11v-48q0 -12 -12 -12z" />
    <glyph glyph-name="threequarters" unicode="&#xbe;" horiz-adv-x="734"
d="M645 667l-449 -648q-12 -19 -32 -19h-20q-16 0 -21 11t4 22l449 648q12 19 32 19h20q16 0 21 -11t-4 -22zM167 643q-35 0 -54 -35q-7 -11 -18 -6l-37 17q-13 7 -7 20q10 27 42 48.5t79 21.5q46 0 78.5 -25t32.5 -66q0 -24 -13 -44t-34 -29q29 -7 47.5 -30t18.5 -57
q0 -51 -39 -82t-98 -31q-61 0 -99 32t-38 84v7q0 12 11 12h53q13 0 13 -12v-3q0 -24 16 -39t44 -15q26 0 41 14t15 35q0 20 -15 32.5t-41 12.5h-12q-11 0 -11 12v37q0 12 11 12h12q19 0 32 11t13 28t-12 27.5t-31 10.5zM635 0h-53q-5 0 -9 3.5t-4 8.5v73h-156q-5 0 -9 3.5
t-4 8.5v39q0 18 8 28l131 177q7 10 17 10h79q5 0 9 -4t4 -8v-191h45q12 0 12 -13v-38q0 -12 -12 -12h-45v-73q0 -4 -4 -8t-9 -4zM474 148h95v127z" />
    <glyph glyph-name="questiondown" unicode="&#xbf;" horiz-adv-x="493"
d="M238 501q39 0 67 -28t28 -66q0 -39 -28 -67t-67 -28q-38 0 -66 28t-28 67q0 38 28 66t66 28zM250 -228q-104 0 -161 56.5t-57 132.5q0 44 21 87t46.5 70t46.5 57t21 52v6q0 21 21 21h102q9 0 15 -6t6 -16v-24q0 -30 -19.5 -64t-42.5 -59t-42.5 -56t-19.5 -56
q0 -27 20.5 -47t55.5 -20q53 0 97 57q22 25 48 5l49 -39q27 -24 1 -59q-28 -41 -81 -69.5t-127 -28.5z" />
    <glyph glyph-name="Agrave" unicode="&#xc0;" horiz-adv-x="683"
d="M207 954h124q21 0 26 -19l40 -154q8 -32 -26 -32h-66q-15 0 -27 16l-91 156q-7 11 -1 22t21 11zM425 288l-88 264h-3l-86 -264h177zM160 20q-7 -20 -23 -20h-112q-13 0 -18.5 9.5t0.5 24.5l226 644q7 22 29 22h158q21 0 29 -22l227 -643q5 -16 -1 -25.5t-20 -9.5h-118
q-17 0 -23 20l-47 142h-261z" />
    <glyph glyph-name="Aacute" unicode="&#xc1;" horiz-adv-x="683"
d="M475 954q16 0 21.5 -11t-1.5 -22l-91 -156q-12 -16 -27 -16h-66q-32 0 -26 32l40 154q5 19 26 19h124zM425 288l-88 264h-3l-86 -264h177zM160 20q-7 -20 -23 -20h-112q-13 0 -18.5 9.5t0.5 24.5l226 644q7 22 29 22h158q21 0 29 -22l227 -643q5 -16 -1 -25.5t-20 -9.5
h-118q-17 0 -23 20l-47 142h-261z" />
    <glyph glyph-name="Acircumflex" unicode="&#xc2;" horiz-adv-x="683"
d="M278 954h125q18 0 30 -22l93 -151q7 -13 1 -22.5t-16 -9.5h-84q-17 0 -30 17l-57 78l-56 -78q-14 -17 -31 -17h-83q-11 0 -16.5 9.5t1.5 22.5l92 151q13 22 31 22zM425 288l-88 264h-3l-86 -264h177zM160 20q-7 -20 -23 -20h-112q-13 0 -18.5 9.5t0.5 24.5l226 644
q7 22 29 22h158q21 0 29 -22l227 -643q5 -16 -1 -25.5t-20 -9.5h-118q-17 0 -23 20l-47 142h-261z" />
    <glyph glyph-name="Atilde" unicode="&#xc3;" horiz-adv-x="683"
d="M427 762q-28 0 -87 15.5t-71 15.5q-23 0 -43 -16t-27 -16q-11 0 -21 13l-30 45q-9 12 -9 28q0 24 34 51.5t78 27.5q25 0 84.5 -16t73.5 -16q22 0 43 16.5t29 16.5q10 0 21 -14l28 -45q9 -14 9 -28q0 -23 -34 -50.5t-78 -27.5zM425 288l-88 264h-3l-86 -264h177zM160 20
q-7 -20 -23 -20h-112q-13 0 -18.5 9.5t0.5 24.5l226 644q7 22 29 22h158q21 0 29 -22l227 -643q5 -16 -1 -25.5t-20 -9.5h-118q-17 0 -23 20l-47 142h-261z" />
    <glyph glyph-name="Adieresis" unicode="&#xc4;" horiz-adv-x="683"
d="M142 834q0 37 26.5 63t62.5 26q37 0 63 -26t26 -63t-26 -63t-63 -26q-36 0 -62.5 26t-26.5 63zM359 834q0 37 26.5 63t62.5 26q37 0 63 -26t26 -63t-26 -63t-63 -26q-36 0 -62.5 26t-26.5 63zM425 288l-88 264h-3l-86 -264h177zM160 20q-7 -20 -23 -20h-112
q-13 0 -18.5 9.5t0.5 24.5l226 644q7 22 29 22h158q21 0 29 -22l227 -643q5 -16 -1 -25.5t-20 -9.5h-118q-17 0 -23 20l-47 142h-261z" />
    <glyph glyph-name="Aring" unicode="&#xc5;" horiz-adv-x="683"
d="M495 891q-1 -62 -45 -104t-110 -42t-110 42t-44 104q0 63 44 105t110 42t110 -42t45 -105zM400 891q0 27 -16.5 45t-43.5 18t-43.5 -18t-16.5 -45q0 -26 17 -44t43 -18t43 18t17 44zM425 288l-88 264h-3l-86 -264h177zM160 20q-7 -20 -23 -20h-112q-13 0 -18.5 9.5
t0.5 24.5l226 644q7 22 29 22h158q21 0 29 -22l227 -643q5 -16 -1 -25.5t-20 -9.5h-118q-17 0 -23 20l-47 142h-261z" />
    <glyph glyph-name="AE" unicode="&#xc6;" horiz-adv-x="942"
d="M439 292l-92 289l-92 -289h184zM173 22q-6 -22 -27 -22h-120q-30 0 -20 33l219 645q7 22 29 22h640q10 0 16.5 -6.5t6.5 -16.5v-96q0 -10 -6.5 -16t-16.5 -6h-378l50 -141h193q10 0 16.5 -6.5t6.5 -16.5v-88q0 -9 -6.5 -16t-16.5 -7h-149l51 -143h233q10 0 16.5 -6
t6.5 -16v-96q0 -10 -6.5 -16.5t-16.5 -6.5h-342q-24 0 -30 22l-46 140h-258z" />
    <glyph glyph-name="Ccedilla" unicode="&#xc7;" horiz-adv-x="739"
d="M397 -149q-7 -14 -28 -14h-78q-12 0 -17.5 8t-1.5 20l43 129q-128 26 -209.5 125t-81.5 231q0 154 107.5 259t263.5 105q117 0 208.5 -57.5t126.5 -158.5q7 -19 -11 -23l-114 -30q-15 -4 -23 14q-60 116 -186 116q-94 0 -155 -65t-61 -160t61 -160t155 -65q126 0 186 116
q8 18 23 14l114 -30q18 -4 11 -23q-29 -84 -99 -139t-163 -71z" />
    <glyph glyph-name="Egrave" unicode="&#xc8;" horiz-adv-x="634"
d="M199 954h124q21 0 26 -19l40 -154q8 -32 -26 -32h-66q-15 0 -27 16l-91 156q-7 11 -1 22t21 11zM81 700h501q10 0 16.5 -6.5t6.5 -16.5v-92q0 -10 -6.5 -16.5t-16.5 -6.5h-373v-144h195q10 0 16 -6.5t6 -16.5v-88q0 -9 -6.5 -16t-15.5 -7h-195v-146h381q9 0 16 -6.5
t7 -16.5v-92q0 -10 -7 -16.5t-16 -6.5h-509q-10 0 -16 6.5t-6 16.5v655q0 9 6 15.5t16 6.5z" />
    <glyph glyph-name="Eacute" unicode="&#xc9;" horiz-adv-x="634"
d="M467 954q16 0 21.5 -11t-1.5 -22l-91 -156q-12 -16 -27 -16h-66q-32 0 -26 32l40 154q5 19 26 19h124zM81 700h501q10 0 16.5 -6.5t6.5 -16.5v-92q0 -10 -6.5 -16.5t-16.5 -6.5h-373v-144h195q10 0 16 -6.5t6 -16.5v-88q0 -9 -6.5 -16t-15.5 -7h-195v-146h381
q9 0 16 -6.5t7 -16.5v-92q0 -10 -7 -16.5t-16 -6.5h-509q-10 0 -16 6.5t-6 16.5v655q0 9 6 15.5t16 6.5z" />
    <glyph glyph-name="Ecircumflex" unicode="&#xca;" horiz-adv-x="634"
d="M271 954h125q18 0 30 -22l93 -151q7 -13 1 -22.5t-16 -9.5h-84q-17 0 -30 17l-57 78l-56 -78q-14 -17 -31 -17h-83q-11 0 -16.5 9.5t1.5 22.5l92 151q13 22 31 22zM81 700h501q10 0 16.5 -6.5t6.5 -16.5v-92q0 -10 -6.5 -16.5t-16.5 -6.5h-373v-144h195q10 0 16 -6.5
t6 -16.5v-88q0 -9 -6.5 -16t-15.5 -7h-195v-146h381q9 0 16 -6.5t7 -16.5v-92q0 -10 -7 -16.5t-16 -6.5h-509q-10 0 -16 6.5t-6 16.5v655q0 9 6 15.5t16 6.5z" />
    <glyph glyph-name="Edieresis" unicode="&#xcb;" horiz-adv-x="634"
d="M134 834q0 37 26.5 63t62.5 26q37 0 63 -26t26 -63t-26 -63t-63 -26q-36 0 -62.5 26t-26.5 63zM351 834q0 37 26.5 63t62.5 26q37 0 63 -26t26 -63t-26 -63t-63 -26q-36 0 -62.5 26t-26.5 63zM81 700h501q10 0 16.5 -6.5t6.5 -16.5v-92q0 -10 -6.5 -16.5t-16.5 -6.5h-373
v-144h195q10 0 16 -6.5t6 -16.5v-88q0 -9 -6.5 -16t-15.5 -7h-195v-146h381q9 0 16 -6.5t7 -16.5v-92q0 -10 -7 -16.5t-16 -6.5h-509q-10 0 -16 6.5t-6 16.5v655q0 9 6 15.5t16 6.5z" />
    <glyph glyph-name="Igrave" unicode="&#xcc;" horiz-adv-x="268"
d="M0 954h124q21 0 26 -19l40 -154q8 -32 -26 -32h-66q-15 0 -27 16l-91 156q-7 11 -1 22t21 11zM186 0h-105q-10 0 -16 6.5t-6 16.5v655q0 9 6 15.5t16 6.5h105q10 0 16.5 -6.5t6.5 -15.5v-655q0 -10 -6.5 -16.5t-16.5 -6.5z" />
    <glyph glyph-name="Iacute" unicode="&#xcd;" horiz-adv-x="268"
d="M268 954q16 0 21.5 -11t-1.5 -22l-91 -156q-12 -16 -27 -16h-66q-32 0 -26 32l40 154q5 19 26 19h124zM186 0h-105q-10 0 -16 6.5t-6 16.5v655q0 9 6 15.5t16 6.5h105q10 0 16.5 -6.5t6.5 -15.5v-655q0 -10 -6.5 -16.5t-16.5 -6.5z" />
    <glyph glyph-name="Icircumflex" unicode="&#xce;" horiz-adv-x="268"
d="M71 954h125q18 0 30 -22l93 -151q7 -13 1 -22.5t-16 -9.5h-84q-17 0 -30 17l-57 78l-56 -78q-14 -17 -31 -17h-83q-11 0 -16.5 9.5t1.5 22.5l92 151q13 22 31 22zM186 0h-105q-10 0 -16 6.5t-6 16.5v655q0 9 6 15.5t16 6.5h105q10 0 16.5 -6.5t6.5 -15.5v-655
q0 -10 -6.5 -16.5t-16.5 -6.5z" />
    <glyph glyph-name="Idieresis" unicode="&#xcf;" horiz-adv-x="268"
d="M-64 834q0 37 26.5 63t62.5 26q37 0 63 -26t26 -63t-26 -63t-63 -26q-36 0 -62.5 26t-26.5 63zM153 834q0 37 26.5 63t62.5 26q37 0 63 -26t26 -63t-26 -63t-63 -26q-36 0 -62.5 26t-26.5 63zM186 0h-105q-10 0 -16 6.5t-6 16.5v655q0 9 6 15.5t16 6.5h105
q10 0 16.5 -6.5t6.5 -15.5v-655q0 -10 -6.5 -16.5t-16.5 -6.5z" />
    <glyph glyph-name="Eth" unicode="&#xd0;" horiz-adv-x="758"
d="M375 0h-275q-9 0 -15.5 6.5t-6.5 16.5v269h-56q-10 0 -16.5 7t-6.5 16v72q0 10 6.5 16.5t16.5 6.5h56v268q0 9 6.5 15.5t15.5 6.5h275q162 0 260 -96t98 -253t-98.5 -254t-259.5 -97zM228 138h147q88 0 144.5 61t56.5 152q0 92 -56 151.5t-145 59.5h-147v-152h154
q9 0 15.5 -6.5t6.5 -16.5v-72q0 -9 -6.5 -16t-15.5 -7h-154v-154z" />
    <glyph glyph-name="Ntilde" unicode="&#xd1;" horiz-adv-x="728"
d="M451 762q-28 0 -87 15.5t-71 15.5q-23 0 -43 -16t-27 -16q-11 0 -21 13l-30 45q-9 12 -9 28q0 24 34 51.5t78 27.5q25 0 84.5 -16t73.5 -16q22 0 43 16.5t29 16.5q11 0 21 -14l28 -45q9 -14 9 -28q0 -23 -34 -50.5t-78 -27.5zM486 22l-277 441v-441q0 -10 -6.5 -16
t-15.5 -6h-106q-22 0 -22 22v656q0 9 6 15.5t16 6.5h137q22 0 32 -18l269 -432v428q0 9 6.5 15.5t15.5 6.5h105q9 0 16 -6.5t7 -15.5v-656q0 -9 -7 -15.5t-16 -6.5h-113q-33 0 -47 22z" />
    <glyph glyph-name="Ograve" unicode="&#xd2;" horiz-adv-x="790"
d="M261 954h124q21 0 26 -19l40 -154q8 -32 -26 -32h-66q-15 0 -27 16l-91 156q-7 11 -1 22t21 11zM766 350q0 -154 -107.5 -259t-263.5 -105t-263.5 105.5t-107.5 258.5t107.5 258.5t263.5 105.5t263.5 -105t107.5 -259zM610 350q0 95 -61 160t-154 65t-154 -65t-61 -160
t61 -160t154 -65t154 65t61 160z" />
    <glyph glyph-name="Oacute" unicode="&#xd3;" horiz-adv-x="790"
d="M529 954q16 0 21.5 -11t-1.5 -22l-91 -156q-12 -16 -27 -16h-66q-32 0 -26 32l40 154q5 19 26 19h124zM766 350q0 -154 -107.5 -259t-263.5 -105t-263.5 105.5t-107.5 258.5t107.5 258.5t263.5 105.5t263.5 -105t107.5 -259zM610 350q0 95 -61 160t-154 65t-154 -65
t-61 -160t61 -160t154 -65t154 65t61 160z" />
    <glyph glyph-name="Ocircumflex" unicode="&#xd4;" horiz-adv-x="790"
d="M333 954h125q18 0 30 -22l93 -151q7 -13 1 -22.5t-16 -9.5h-84q-17 0 -30 17l-57 78l-56 -78q-14 -17 -31 -17h-83q-11 0 -16.5 9.5t1.5 22.5l92 151q13 22 31 22zM766 350q0 -154 -107.5 -259t-263.5 -105t-263.5 105.5t-107.5 258.5t107.5 258.5t263.5 105.5
t263.5 -105t107.5 -259zM610 350q0 95 -61 160t-154 65t-154 -65t-61 -160t61 -160t154 -65t154 65t61 160z" />
    <glyph glyph-name="Otilde" unicode="&#xd5;" horiz-adv-x="790"
d="M482 762q-28 0 -87 15.5t-71 15.5q-22 0 -42 -16t-28 -16q-11 0 -21 13l-30 45q-9 12 -9 28q0 24 34 51.5t78 27.5q25 0 84.5 -16t73.5 -16q22 0 43 16.5t29 16.5q10 0 21 -14l28 -45q9 -14 9 -28q0 -23 -34 -50.5t-78 -27.5zM766 350q0 -154 -107.5 -259t-263.5 -105
t-263.5 105.5t-107.5 258.5t107.5 258.5t263.5 105.5t263.5 -105t107.5 -259zM610 350q0 95 -61 160t-154 65t-154 -65t-61 -160t61 -160t154 -65t154 65t61 160z" />
    <glyph glyph-name="Odieresis" unicode="&#xd6;" horiz-adv-x="790"
d="M196 834q0 37 26.5 63t62.5 26q37 0 63 -26t26 -63t-26 -63t-63 -26q-36 0 -62.5 26t-26.5 63zM413 834q0 37 26.5 63t62.5 26q37 0 63 -26t26 -63t-26 -63t-63 -26q-36 0 -62.5 26t-26.5 63zM766 350q0 -154 -107.5 -259t-263.5 -105t-263.5 105.5t-107.5 258.5
t107.5 258.5t263.5 105.5t263.5 -105t107.5 -259zM610 350q0 95 -61 160t-154 65t-154 -65t-61 -160t61 -160t154 -65t154 65t61 160z" />
    <glyph glyph-name="multiply" unicode="&#xd7;" horiz-adv-x="622"
d="M142 82q-6 -7 -15.5 -7t-15.5 6l-69 69q-7 6 -7 15.5t7 16.5l169 169l-169 169q-16 14 -1 33l69 68q6 7 15.5 7t16.5 -7l170 -169l168 169q17 16 33 0l69 -68q13 -19 -1 -33l-169 -169l169 -169q6 -7 6 -16.5t-6 -15.5l-69 -69q-16 -15 -32 1l-168 169z" />
    <glyph glyph-name="Oslash" unicode="&#xd8;" horiz-adv-x="790"
d="M766 350q0 -154 -107.5 -259t-263.5 -105t-263.5 105.5t-107.5 258.5t107.5 258.5t263.5 105.5t263.5 -105t107.5 -259zM180 350q0 -77 40 -135t107 -80v430q-67 -22 -107 -80t-40 -135zM610 350q0 77 -40 135t-107 80v-430q67 22 107 80t40 135z" />
    <glyph glyph-name="Ugrave" unicode="&#xd9;" horiz-adv-x="692"
d="M212 954h124q21 0 26 -19l40 -154q8 -32 -26 -32h-66q-15 0 -27 16l-91 156q-7 11 -1 22t21 11zM640 252q0 -89 -43 -151t-107.5 -88.5t-143.5 -26.5t-143.5 26.5t-107.5 88.5t-43 151v426q0 9 6 15.5t16 6.5h105q9 0 16 -6.5t7 -15.5v-415q0 -65 38 -102.5t106 -37.5
t106 37.5t38 102.5v415q0 9 6.5 15.5t16.5 6.5h105q9 0 15.5 -6.5t6.5 -15.5v-426z" />
    <glyph glyph-name="Uacute" unicode="&#xda;" horiz-adv-x="692"
d="M480 954q16 0 21.5 -11t-1.5 -22l-91 -156q-12 -16 -27 -16h-66q-32 0 -26 32l40 154q5 19 26 19h124zM640 252q0 -89 -43 -151t-107.5 -88.5t-143.5 -26.5t-143.5 26.5t-107.5 88.5t-43 151v426q0 9 6 15.5t16 6.5h105q9 0 16 -6.5t7 -15.5v-415q0 -65 38 -102.5
t106 -37.5t106 37.5t38 102.5v415q0 9 6.5 15.5t16.5 6.5h105q9 0 15.5 -6.5t6.5 -15.5v-426z" />
    <glyph glyph-name="Ucircumflex" unicode="&#xdb;" horiz-adv-x="692"
d="M283 954h125q18 0 30 -22l93 -151q7 -13 1 -22.5t-16 -9.5h-84q-17 0 -30 17l-57 78l-56 -78q-14 -17 -31 -17h-83q-11 0 -16.5 9.5t1.5 22.5l92 151q13 22 31 22zM640 252q0 -89 -43 -151t-107.5 -88.5t-143.5 -26.5t-143.5 26.5t-107.5 88.5t-43 151v426q0 9 6 15.5
t16 6.5h105q9 0 16 -6.5t7 -15.5v-415q0 -65 38 -102.5t106 -37.5t106 37.5t38 102.5v415q0 9 6.5 15.5t16.5 6.5h105q9 0 15.5 -6.5t6.5 -15.5v-426z" />
    <glyph glyph-name="Udieresis" unicode="&#xdc;" horiz-adv-x="692"
d="M147 834q0 37 26.5 63t62.5 26q37 0 63 -26t26 -63t-26 -63t-63 -26q-36 0 -62.5 26t-26.5 63zM364 834q0 37 26.5 63t62.5 26q37 0 63 -26t26 -63t-26 -63t-63 -26q-36 0 -62.5 26t-26.5 63zM640 252q0 -89 -43 -151t-107.5 -88.5t-143.5 -26.5t-143.5 26.5t-107.5 88.5
t-43 151v426q0 9 6 15.5t16 6.5h105q9 0 16 -6.5t7 -15.5v-415q0 -65 38 -102.5t106 -37.5t106 37.5t38 102.5v415q0 9 6.5 15.5t16.5 6.5h105q9 0 15.5 -6.5t6.5 -15.5v-426z" />
    <glyph glyph-name="Yacute" unicode="&#xdd;" horiz-adv-x="652"
d="M461 954q16 0 21.5 -11t-1.5 -22l-91 -156q-12 -16 -27 -16h-66q-32 0 -26 32l40 154q5 19 26 19h124zM251 23v241l-242 402q-8 12 -2.5 23t17.5 11h131q18 0 27 -17l146 -251h2l145 251q9 17 26 17h126q13 0 18.5 -10t-2.5 -24l-242 -402v-241q0 -9 -6.5 -16t-15.5 -7
h-106q-9 0 -15.5 6.5t-6.5 16.5z" />
    <glyph glyph-name="Thorn" unicode="&#xde;" horiz-adv-x="620"
d="M187 0h-106q-10 0 -16 6.5t-6 16.5v654q0 10 6 16.5t16 6.5h106q9 0 15.5 -6.5t6.5 -16.5v-82h146q115 0 180.5 -67t65.5 -166q-1 -100 -66.5 -166.5t-179.5 -67.5h-146v-105q0 -10 -6.5 -16.5t-15.5 -6.5zM209 260h129q46 0 76.5 28t30.5 74t-30.5 74t-76.5 28h-129
v-204z" />
    <glyph glyph-name="germandbls" unicode="&#xdf;" horiz-adv-x="560"
d="M43 486q0 110 64 177t174 67q100 0 160 -54.5t60 -131.5q0 -41 -19.5 -83t-38.5 -71t-19 -41t18.5 -32.5t40.5 -41.5t40.5 -57.5t18.5 -75.5q0 -64 -48.5 -110t-141.5 -46q-48 0 -79 8q-25 5 -20 26l16 81q3 16 16 12q1 0 18.5 -2.5t27.5 -2.5q28 0 41.5 14t13.5 33
q0 16 -18 38.5t-39.5 42t-39.5 46t-18 50.5q0 32 43.5 102t43.5 97q0 28 -21 49.5t-58 21.5q-42 0 -67 -30.5t-25 -81.5v-468q0 -9 -6 -15.5t-15 -6.5h-101q-9 0 -15.5 6.5t-6.5 15.5v464z" />
    <glyph glyph-name="agrave" unicode="&#xe0;"
d="M158 741h124q21 0 26 -19l40 -154q8 -32 -26 -32h-66q-15 0 -27 16l-91 156q-7 10 -1 21.5t21 11.5zM167 243q0 -51 34 -87.5t85 -36.5t85 36.5t34 87.5t-34 87.5t-85 36.5t-85 -36.5t-34 -87.5zM21 244q0 114 72.5 185.5t171.5 71.5q47 0 84.5 -18.5t55.5 -47.5v30
q0 9 6.5 15.5t14.5 6.5h101q9 0 15 -6.5t6 -15.5v-444q0 -9 -6 -15t-15 -6h-101q-8 0 -14.5 6t-6.5 15v31q-18 -29 -55.5 -47.5t-85.5 -18.5q-98 0 -170.5 72t-72.5 186z" />
    <glyph glyph-name="aacute" unicode="&#xe1;"
d="M426 741q16 0 21.5 -11.5t-1.5 -21.5l-91 -156q-12 -16 -27 -16h-66q-32 0 -26 32l40 154q5 19 26 19h124zM167 243q0 -51 34 -87.5t85 -36.5t85 36.5t34 87.5t-34 87.5t-85 36.5t-85 -36.5t-34 -87.5zM21 244q0 114 72.5 185.5t171.5 71.5q47 0 84.5 -18.5t55.5 -47.5
v30q0 9 6.5 15.5t14.5 6.5h101q9 0 15 -6.5t6 -15.5v-444q0 -9 -6 -15t-15 -6h-101q-8 0 -14.5 6t-6.5 15v31q-18 -29 -55.5 -47.5t-85.5 -18.5q-98 0 -170.5 72t-72.5 186z" />
    <glyph glyph-name="acircumflex" unicode="&#xe2;"
d="M229 741h125q18 0 30 -22l93 -151q7 -14 1 -23t-16 -9h-84q-17 0 -30 17l-57 78l-56 -78q-14 -17 -31 -17h-83q-11 0 -16.5 9t1.5 23l92 151q13 22 31 22zM167 243q0 -51 34 -87.5t85 -36.5t85 36.5t34 87.5t-34 87.5t-85 36.5t-85 -36.5t-34 -87.5zM21 244
q0 114 72.5 185.5t171.5 71.5q47 0 84.5 -18.5t55.5 -47.5v30q0 9 6.5 15.5t14.5 6.5h101q9 0 15 -6.5t6 -15.5v-444q0 -9 -6 -15t-15 -6h-101q-8 0 -14.5 6t-6.5 15v31q-18 -29 -55.5 -47.5t-85.5 -18.5q-98 0 -170.5 72t-72.5 186z" />
    <glyph glyph-name="atilde" unicode="&#xe3;"
d="M378 549q-28 0 -87 15.5t-71 15.5q-22 0 -42 -16t-28 -16q-11 0 -21 13l-30 45q-9 12 -9 28q0 24 34 51.5t78 27.5q25 0 84.5 -16t73.5 -16q22 0 43 16.5t29 16.5q10 0 21 -14l28 -45q9 -13 9 -28q0 -23 -34 -50.5t-78 -27.5zM167 243q0 -51 34 -87.5t85 -36.5t85 36.5
t34 87.5t-34 87.5t-85 36.5t-85 -36.5t-34 -87.5zM21 244q0 114 72.5 185.5t171.5 71.5q47 0 84.5 -18.5t55.5 -47.5v30q0 9 6.5 15.5t14.5 6.5h101q9 0 15 -6.5t6 -15.5v-444q0 -9 -6 -15t-15 -6h-101q-8 0 -14.5 6t-6.5 15v31q-18 -29 -55.5 -47.5t-85.5 -18.5
q-98 0 -170.5 72t-72.5 186z" />
    <glyph glyph-name="adieresis" unicode="&#xe4;"
d="M93 621q0 37 26.5 63t62.5 26q37 0 63 -26t26 -63t-26 -63t-63 -26q-36 0 -62.5 26t-26.5 63zM310 621q0 37 26.5 63t62.5 26q37 0 63 -26t26 -63t-26 -63t-63 -26q-36 0 -62.5 26t-26.5 63zM167 243q0 -51 34 -87.5t85 -36.5t85 36.5t34 87.5t-34 87.5t-85 36.5
t-85 -36.5t-34 -87.5zM21 244q0 114 72.5 185.5t171.5 71.5q47 0 84.5 -18.5t55.5 -47.5v30q0 9 6.5 15.5t14.5 6.5h101q9 0 15 -6.5t6 -15.5v-444q0 -9 -6 -15t-15 -6h-101q-8 0 -14.5 6t-6.5 15v31q-18 -29 -55.5 -47.5t-85.5 -18.5q-98 0 -170.5 72t-72.5 186z" />
    <glyph glyph-name="aring" unicode="&#xe5;"
d="M446 677q-1 -62 -45 -104t-110 -42t-110 42t-44 104q0 63 44 105t110 42t110 -42t45 -105zM351 677q0 27 -16.5 45t-43.5 18t-43.5 -18t-16.5 -45q0 -26 17 -44t43 -18t43 18t17 44zM167 243q0 -51 34 -87.5t85 -36.5t85 36.5t34 87.5t-34 87.5t-85 36.5t-85 -36.5
t-34 -87.5zM21 244q0 114 72.5 185.5t171.5 71.5q47 0 84.5 -18.5t55.5 -47.5v30q0 9 6.5 15.5t14.5 6.5h101q9 0 15 -6.5t6 -15.5v-444q0 -9 -6 -15t-15 -6h-101q-8 0 -14.5 6t-6.5 15v31q-18 -29 -55.5 -47.5t-85.5 -18.5q-98 0 -170.5 72t-72.5 186z" />
    <glyph glyph-name="ae" unicode="&#xe6;" horiz-adv-x="885"
d="M624 -14q-104 0 -174 61q-67 -61 -167 -61q-110 0 -186.5 74t-76.5 182q0 109 76.5 184t186.5 75q98 0 168 -62q70 62 171 62q111 0 180 -72.5t69 -170.5v-27q0 -23 -25 -23h-334q5 -45 38 -72.5t77 -27.5q62 0 104 47q13 15 26 5l77 -50q16 -11 4 -30q-72 -94 -214 -94z
M729 298q-9 42 -39 64.5t-67 22.5q-38 0 -68 -23.5t-40 -63.5h214zM285 120q57 0 91 39q-13 42 -13 82q0 45 14 85q-35 41 -92 41q-51 0 -85 -36.5t-34 -87.5t34 -87t85 -36z" />
    <glyph glyph-name="ccedilla" unicode="&#xe7;" horiz-adv-x="520"
d="M282 -149q-7 -14 -28 -14h-78q-12 0 -17.5 8t-1.5 20l44 133q-80 25 -130 91.5t-50 153.5q0 109 75.5 183.5t186.5 74.5q73 0 130.5 -31t89.5 -82q6 -11 2 -22t-13 -17l-58 -44q-23 -18 -44 7q-47 55 -105 55q-51 0 -84.5 -36t-33.5 -88t33.5 -87.5t84.5 -35.5
q59 0 105 55q20 24 44 7l58 -44q23 -17 11 -39q-50 -80 -149 -105z" />
    <glyph glyph-name="egrave" unicode="&#xe8;" horiz-adv-x="543"
d="M141 741h124q21 0 26 -19l40 -154q8 -32 -26 -32h-66q-15 0 -27 16l-91 156q-7 10 -1 21.5t21 11.5zM279 501q111 0 180.5 -72.5t69.5 -170.5v-27q0 -23 -25 -23h-334q5 -45 37.5 -72.5t76.5 -27.5q62 0 104 47q14 14 26 5l77 -50q18 -12 4 -30q-72 -94 -214 -94
q-114 0 -187 73t-73 182t73.5 184.5t184.5 75.5zM387 298q-9 42 -39 64.5t-68 22.5q-37 0 -67 -23.5t-40 -63.5h214z" />
    <glyph glyph-name="eacute" unicode="&#xe9;" horiz-adv-x="543"
d="M409 741q16 0 21.5 -11.5t-1.5 -21.5l-91 -156q-12 -16 -27 -16h-66q-32 0 -26 32l40 154q5 19 26 19h124zM279 501q111 0 180.5 -72.5t69.5 -170.5v-27q0 -23 -25 -23h-334q5 -45 37.5 -72.5t76.5 -27.5q62 0 104 47q14 14 26 5l77 -50q18 -12 4 -30q-72 -94 -214 -94
q-114 0 -187 73t-73 182t73.5 184.5t184.5 75.5zM387 298q-9 42 -39 64.5t-68 22.5q-37 0 -67 -23.5t-40 -63.5h214z" />
    <glyph glyph-name="ecircumflex" unicode="&#xea;" horiz-adv-x="543"
d="M212 741h125q18 0 30 -22l93 -151q7 -14 1 -23t-16 -9h-84q-17 0 -30 17l-57 78l-56 -78q-14 -17 -31 -17h-83q-11 0 -16.5 9t1.5 23l92 151q13 22 31 22zM279 501q111 0 180.5 -72.5t69.5 -170.5v-27q0 -23 -25 -23h-334q5 -45 37.5 -72.5t76.5 -27.5q62 0 104 47
q14 14 26 5l77 -50q18 -12 4 -30q-72 -94 -214 -94q-114 0 -187 73t-73 182t73.5 184.5t184.5 75.5zM387 298q-9 42 -39 64.5t-68 22.5q-37 0 -67 -23.5t-40 -63.5h214z" />
    <glyph glyph-name="edieresis" unicode="&#xeb;" horiz-adv-x="543"
d="M76 621q0 37 26.5 63t62.5 26q37 0 63 -26t26 -63t-26 -63t-63 -26q-36 0 -62.5 26t-26.5 63zM293 621q0 37 26.5 63t62.5 26q37 0 63 -26t26 -63t-26 -63t-63 -26q-36 0 -62.5 26t-26.5 63zM279 501q111 0 180.5 -72.5t69.5 -170.5v-27q0 -23 -25 -23h-334
q5 -45 37.5 -72.5t76.5 -27.5q62 0 104 47q14 14 26 5l77 -50q18 -12 4 -30q-72 -94 -214 -94q-114 0 -187 73t-73 182t73.5 184.5t184.5 75.5zM387 298q-9 42 -39 64.5t-68 22.5q-37 0 -67 -23.5t-40 -63.5h214z" />
    <glyph glyph-name="igrave" unicode="&#xec;" horiz-adv-x="230"
d="M-18 741h124q21 0 26 -19l40 -154q8 -32 -26 -32h-66q-15 0 -27 16l-91 156q-7 10 -1 21.5t21 11.5zM166 0h-101q-9 0 -15.5 6.5t-6.5 15.5v443q0 9 6.5 15.5t15.5 6.5h101q9 0 15 -6.5t6 -15.5v-443q0 -9 -6 -15.5t-15 -6.5z" />
    <glyph glyph-name="iacute" unicode="&#xed;" horiz-adv-x="230"
d="M249 741q16 0 21.5 -11.5t-1.5 -21.5l-91 -156q-12 -16 -27 -16h-66q-32 0 -26 32l40 154q5 19 26 19h124zM166 0h-101q-9 0 -15.5 6.5t-6.5 15.5v443q0 9 6.5 15.5t15.5 6.5h101q9 0 15 -6.5t6 -15.5v-443q0 -9 -6 -15.5t-15 -6.5z" />
    <glyph glyph-name="icircumflex" unicode="&#xee;" horiz-adv-x="230"
d="M53 741h125q18 0 30 -22l93 -151q7 -14 1 -23t-16 -9h-84q-17 0 -30 17l-57 78l-56 -78q-14 -17 -31 -17h-83q-11 0 -16.5 9t1.5 23l92 151q13 22 31 22zM166 0h-101q-9 0 -15.5 6.5t-6.5 15.5v443q0 9 6.5 15.5t15.5 6.5h101q9 0 15 -6.5t6 -15.5v-443q0 -9 -6 -15.5
t-15 -6.5z" />
    <glyph glyph-name="idieresis" unicode="&#xef;" horiz-adv-x="230"
d="M-82 621q0 37 26.5 63t62.5 26q37 0 63 -26t26 -63t-26 -63t-63 -26q-36 0 -62.5 26t-26.5 63zM135 621q0 37 26.5 63t62.5 26q37 0 63 -26t26 -63t-26 -63t-63 -26q-36 0 -62.5 26t-26.5 63zM166 0h-101q-9 0 -15.5 6.5t-6.5 15.5v443q0 9 6.5 15.5t15.5 6.5h101
q9 0 15 -6.5t6 -15.5v-443q0 -9 -6 -15.5t-15 -6.5z" />
    <glyph glyph-name="eth" unicode="&#xf0;" horiz-adv-x="589"
d="M294 -14q-116 0 -195 75.5t-79 184.5q0 102 68.5 174.5t171.5 72.5q68 0 114 -36q-40 54 -89 106l-87 -29q-21 -8 -28 12l-12 39q-7 22 14 29l48 17q-38 38 -67 64q-11 11 -6.5 23.5t22.5 12.5l111 2q22 0 35 -11q4 -3 13 -11.5t18 -16.5t17 -16l90 30q21 8 28 -11
l12 -39q7 -22 -14 -29l-55 -19q142 -174 142 -339q0 -123 -76 -204t-196 -81zM168 243q0 -52 34.5 -88t85.5 -36t85.5 36t34.5 88t-34.5 88t-85.5 36t-85.5 -36t-34.5 -88z" />
    <glyph glyph-name="ntilde" unicode="&#xf1;" horiz-adv-x="592"
d="M363 551q-28 0 -87 15.5t-71 15.5q-23 0 -43 -16t-27 -16q-11 0 -21 13l-30 45q-9 12 -9 28q0 24 34 51.5t78 27.5q25 0 84.5 -16t73.5 -16q22 0 43 16.5t29 16.5q11 0 21 -14l28 -45q9 -13 9 -28q0 -23 -34 -50.5t-78 -27.5zM409 20v231q0 53 -29 85t-80 32t-82 -32.5
t-31 -84.5v-231q0 -9 -6.5 -14.5t-15.5 -5.5h-101q-9 0 -15 6t-6 15v444q0 9 6 15.5t15 6.5h101q8 0 15 -6t7 -14v-31q54 65 158 65q95 0 152 -60t57 -151v-270q0 -9 -6.5 -14.5t-15.5 -5.5h-101q-9 0 -15.5 5.5t-6.5 14.5z" />
    <glyph glyph-name="ograve" unicode="&#xf2;" horiz-adv-x="569"
d="M151 741h124q21 0 26 -19l40 -154q8 -32 -26 -32h-66q-15 0 -27 16l-91 156q-7 10 -1 21.5t21 11.5zM20 242q0 108 77 183.5t187 75.5t187.5 -75t77.5 -184q0 -108 -77 -182t-188 -74q-110 0 -187 74t-77 182zM166 243q0 -51 34 -87t84 -36q51 0 85 36t34 87t-34 87.5
t-85 36.5q-50 0 -84 -36.5t-34 -87.5z" />
    <glyph glyph-name="oacute" unicode="&#xf3;" horiz-adv-x="569"
d="M419 741q16 0 21.5 -11.5t-1.5 -21.5l-91 -156q-12 -16 -27 -16h-66q-32 0 -26 32l40 154q5 19 26 19h124zM20 242q0 108 77 183.5t187 75.5t187.5 -75t77.5 -184q0 -108 -77 -182t-188 -74q-110 0 -187 74t-77 182zM166 243q0 -51 34 -87t84 -36q51 0 85 36t34 87
t-34 87.5t-85 36.5q-50 0 -84 -36.5t-34 -87.5z" />
    <glyph glyph-name="ocircumflex" unicode="&#xf4;" horiz-adv-x="569"
d="M222 741h125q18 0 30 -22l93 -151q7 -14 1 -23t-16 -9h-84q-17 0 -30 17l-57 78l-56 -78q-14 -17 -31 -17h-83q-11 0 -16.5 9t1.5 23l92 151q13 22 31 22zM20 242q0 108 77 183.5t187 75.5t187.5 -75t77.5 -184q0 -108 -77 -182t-188 -74q-110 0 -187 74t-77 182z
M166 243q0 -51 34 -87t84 -36q51 0 85 36t34 87t-34 87.5t-85 36.5q-50 0 -84 -36.5t-34 -87.5z" />
    <glyph glyph-name="otilde" unicode="&#xf5;" horiz-adv-x="569"
d="M372 549q-28 0 -87 15.5t-71 15.5q-22 0 -42 -16t-28 -16q-11 0 -21 13l-30 45q-9 12 -9 28q0 24 34 51.5t78 27.5q25 0 84.5 -16t73.5 -16q22 0 43 16.5t29 16.5q10 0 21 -14l28 -45q9 -13 9 -28q0 -23 -34 -50.5t-78 -27.5zM20 242q0 108 77 183.5t187 75.5t187.5 -75
t77.5 -184q0 -108 -77 -182t-188 -74q-110 0 -187 74t-77 182zM166 243q0 -51 34 -87t84 -36q51 0 85 36t34 87t-34 87.5t-85 36.5q-50 0 -84 -36.5t-34 -87.5z" />
    <glyph glyph-name="odieresis" unicode="&#xf6;" horiz-adv-x="569"
d="M86 621q0 37 26.5 63t62.5 26q37 0 63 -26t26 -63t-26 -63t-63 -26q-36 0 -62.5 26t-26.5 63zM303 621q0 37 26.5 63t62.5 26q37 0 63 -26t26 -63t-26 -63t-63 -26q-36 0 -62.5 26t-26.5 63zM20 242q0 108 77 183.5t187 75.5t187.5 -75t77.5 -184q0 -108 -77 -182
t-188 -74q-110 0 -187 74t-77 182zM166 243q0 -51 34 -87t84 -36q51 0 85 36t34 87t-34 87.5t-85 36.5q-50 0 -84 -36.5t-34 -87.5z" />
    <glyph glyph-name="divide" unicode="&#xf7;" horiz-adv-x="594"
d="M297 467q-39 0 -67 27.5t-28 66.5t28 66t67 27t66.5 -27t27.5 -66q0 -40 -27.5 -67t-66.5 -27zM563 400v-97q0 -10 -6.5 -16.5t-16.5 -6.5h-486q-9 0 -16 6.5t-7 16.5v97q0 9 7 16t16 7h486q10 0 16.5 -7t6.5 -16zM297 46q-39 0 -67 27t-28 66t28 66.5t67 27.5t66.5 -27
t27.5 -67q0 -39 -27.5 -66t-66.5 -27z" />
    <glyph glyph-name="oslash" unicode="&#xf8;" horiz-adv-x="569"
d="M20 242q0 108 77 183.5t187 75.5t187.5 -75t77.5 -184q0 -108 -77 -182t-188 -74q-110 0 -187 74t-77 182zM403 243q0 39 -19.5 69.5t-52.5 44.5v-227q32 13 52 44t20 69zM166 243q0 -39 20 -69.5t53 -44.5v228q-33 -14 -53 -44.5t-20 -69.5z" />
    <glyph glyph-name="ugrave" unicode="&#xf9;" horiz-adv-x="569"
d="M144 741h124q21 0 26 -19l40 -154q8 -32 -26 -32h-66q-15 0 -27 16l-91 156q-7 10 -1 21.5t21 11.5zM182 467v-251q0 -50 25 -79t74 -29q48 0 74.5 29t26.5 77v253q0 8 6.5 14t14.5 6h101q10 0 16 -6.5t6 -15.5v-444q0 -9 -6 -15t-16 -6h-101q-9 0 -15 5.5t-6 14.5v31
q-54 -65 -146 -65q-91 0 -144.5 56.5t-53.5 149.5v275q0 8 7 14t15 6h100q9 0 15.5 -6t6.5 -14z" />
    <glyph glyph-name="uacute" unicode="&#xfa;" horiz-adv-x="569"
d="M412 741q16 0 21.5 -11.5t-1.5 -21.5l-91 -156q-12 -16 -27 -16h-66q-32 0 -26 32l40 154q5 19 26 19h124zM182 467v-251q0 -50 25 -79t74 -29q48 0 74.5 29t26.5 77v253q0 8 6.5 14t14.5 6h101q10 0 16 -6.5t6 -15.5v-444q0 -9 -6 -15t-16 -6h-101q-9 0 -15 5.5t-6 14.5
v31q-54 -65 -146 -65q-91 0 -144.5 56.5t-53.5 149.5v275q0 8 7 14t15 6h100q9 0 15.5 -6t6.5 -14z" />
    <glyph glyph-name="ucircumflex" unicode="&#xfb;" horiz-adv-x="569"
d="M215 741h125q18 0 30 -22l93 -151q7 -14 1 -23t-16 -9h-84q-17 0 -30 17l-57 78l-56 -78q-14 -17 -31 -17h-83q-11 0 -16.5 9t1.5 23l92 151q13 22 31 22zM182 467v-251q0 -50 25 -79t74 -29q48 0 74.5 29t26.5 77v253q0 8 6.5 14t14.5 6h101q10 0 16 -6.5t6 -15.5v-444
q0 -9 -6 -15t-16 -6h-101q-9 0 -15 5.5t-6 14.5v31q-54 -65 -146 -65q-91 0 -144.5 56.5t-53.5 149.5v275q0 8 7 14t15 6h100q9 0 15.5 -6t6.5 -14z" />
    <glyph glyph-name="udieresis" unicode="&#xfc;" horiz-adv-x="569"
d="M79 621q0 37 26.5 63t62.5 26q37 0 63 -26t26 -63t-26 -63t-63 -26q-36 0 -62.5 26t-26.5 63zM296 621q0 37 26.5 63t62.5 26q37 0 63 -26t26 -63t-26 -63t-63 -26q-36 0 -62.5 26t-26.5 63zM182 467v-251q0 -50 25 -79t74 -29q48 0 74.5 29t26.5 77v253q0 8 6.5 14
t14.5 6h101q10 0 16 -6.5t6 -15.5v-444q0 -9 -6 -15t-16 -6h-101q-9 0 -15 5.5t-6 14.5v31q-54 -65 -146 -65q-91 0 -144.5 56.5t-53.5 149.5v275q0 8 7 14t15 6h100q9 0 15.5 -6t6.5 -14z" />
    <glyph glyph-name="yacute" unicode="&#xfd;" horiz-adv-x="526"
d="M398 741q16 0 21.5 -11.5t-1.5 -21.5l-91 -156q-12 -16 -27 -16h-66q-32 0 -26 32l40 154q5 19 26 19h124zM157 -232q-92 0 -148 51q-17 15 -2 38l36 52q17 25 44 6q31 -23 60 -23q45 0 61 46l22 62h-51q-20 0 -27 21l-143 432q-10 34 23 34h117q17 0 23 -23l97 -332
l90 332q6 23 27 23h113q31 0 19 -34l-166 -535q-22 -71 -71.5 -110.5t-123.5 -39.5z" />
    <glyph glyph-name="thorn" unicode="&#xfe;"
d="M186 243q0 -52 34.5 -88t85.5 -36t85 36t34 88q0 51 -34 87.5t-85 36.5t-85.5 -36.5t-34.5 -87.5zM187 435q47 66 144 66q99 0 169 -71t70 -186t-70.5 -186.5t-170.5 -71.5q-43 0 -82.5 15.5t-59.5 44.5v-242q0 -9 -6.5 -15t-14.5 -6h-102q-9 0 -15 6t-6 15v874
q0 10 6 16t15 6h102q8 0 14.5 -6t6.5 -16v-243z" />
    <glyph glyph-name="ydieresis" unicode="&#xff;" horiz-adv-x="526"
d="M65 621q0 37 26.5 63t62.5 26q37 0 63 -26t26 -63t-26 -63t-63 -26q-36 0 -62.5 26t-26.5 63zM282 621q0 37 26.5 63t62.5 26q37 0 63 -26t26 -63t-26 -63t-63 -26q-36 0 -62.5 26t-26.5 63zM157 -232q-92 0 -148 51q-17 15 -2 38l36 52q17 25 44 6q31 -23 60 -23
q45 0 61 46l22 62h-51q-20 0 -27 21l-143 432q-10 34 23 34h117q17 0 23 -23l97 -332l90 332q6 23 27 23h113q31 0 19 -34l-166 -535q-22 -71 -71.5 -110.5t-123.5 -39.5z" />
    <glyph glyph-name="dotlessi" unicode="&#x131;" horiz-adv-x="230"
d="M166 0h-101q-9 0 -15.5 6.5t-6.5 15.5v443q0 9 6.5 15.5t15.5 6.5h101q9 0 15 -6.5t6 -15.5v-443q0 -9 -6 -15.5t-15 -6.5z" />
    <glyph glyph-name="OE" unicode="&#x152;" horiz-adv-x="1181"
d="M610 350q0 96 -60.5 161.5t-153.5 65.5t-154 -65.5t-61 -161.5t61 -161.5t154 -65.5t153.5 65.5t60.5 161.5zM602 23v58q-30 -45 -88 -70t-128 -25q-154 0 -258 105t-104 259t103.5 259t254.5 105q71 0 130 -25.5t90 -69.5v59q0 9 7 15.5t16 6.5h509q10 0 16 -6.5
t6 -16.5v-92q0 -10 -6 -16.5t-16 -6.5h-382v-144h196q9 0 16 -6.5t7 -16.5v-88q0 -9 -7 -16t-16 -7h-196v-146h382q10 0 16 -6.5t6 -16.5v-92q0 -10 -6 -16.5t-16 -6.5h-509q-9 0 -16 6.5t-7 16.5z" />
    <glyph glyph-name="oe" unicode="&#x153;" horiz-adv-x="926"
d="M664 -14q-116 0 -190 77q-77 -77 -190 -77q-110 0 -187 74t-77 182t77 183.5t187 75.5q114 0 191 -79q73 79 188 79q111 0 180 -72.5t69 -170.5v-27q0 -23 -25 -23h-334q5 -45 37.5 -72.5t76.5 -27.5q63 0 104 47q14 14 26 5l77 -50q18 -12 4 -30q-72 -94 -214 -94z
M770 298q-9 42 -39 64.5t-67 22.5q-38 0 -68 -23.5t-40 -63.5h214zM166 243q0 -51 34 -87t84 -36q51 0 85 36t34 87t-34 87.5t-85 36.5q-50 0 -84 -36.5t-34 -87.5z" />
    <glyph glyph-name="circumflex" unicode="&#x2c6;" horiz-adv-x="436"
d="M156 741h125q18 0 30 -22l93 -151q7 -14 1 -23t-16 -9h-84q-17 0 -30 17l-57 78l-56 -78q-14 -17 -31 -17h-83q-11 0 -16.5 9t1.5 23l92 151q13 22 31 22z" />
    <glyph glyph-name="ring" unicode="&#x2da;" horiz-adv-x="364"
d="M337 681q-1 -62 -45 -104t-110 -42t-110 42t-44 104q0 63 44 105t110 42t110 -42t45 -105zM242 681q0 27 -16.5 45t-43.5 18t-43.5 -18t-16.5 -45q0 -26 17 -44t43 -18t43 18t17 44z" />
    <glyph glyph-name="tilde" unicode="&#x2dc;" horiz-adv-x="436"
d="M307 551q-28 0 -87 15.5t-71 15.5q-23 0 -43 -16t-27 -16q-11 0 -21 13l-30 45q-9 12 -9 28q0 24 34 51.5t78 27.5q25 0 84.5 -16t73.5 -16q22 0 43 16.5t29 16.5q11 0 21 -14l28 -45q9 -13 9 -28q0 -23 -34 -50.5t-78 -27.5z" />
    <glyph glyph-name="endash" unicode="&#x2013;" horiz-adv-x="653"
d="M583 220h-513q-10 0 -16.5 6.5t-6.5 16.5v104q0 9 6.5 16t16.5 7h513q10 0 16.5 -7t6.5 -16v-104q0 -10 -6.5 -16.5t-16.5 -6.5z" />
    <glyph glyph-name="emdash" unicode="&#x2014;" horiz-adv-x="987"
d="M916 220h-846q-10 0 -16.5 6.5t-6.5 16.5v104q0 9 6.5 16t16.5 7h846q10 0 17 -7t7 -16v-104q0 -10 -7 -16.5t-17 -6.5z" />
    <glyph glyph-name="quoteleft" unicode="&#x2018;" horiz-adv-x="265"
d="M169 573q26 -12 41 -35.5t15 -51.5q0 -42 -28.5 -70.5t-70.5 -28.5t-71.5 29.5t-29.5 76.5q0 58 40.5 115.5t85.5 90.5q32 25 57 9l14 -9q22 -16 7 -37z" />
    <glyph glyph-name="quoteright" unicode="&#x2019;" horiz-adv-x="267"
d="M100 529q-25 12 -40.5 35.5t-15.5 51.5q0 41 29 69.5t71 28.5t72 -29t30 -76q0 -58 -40.5 -114.5t-85.5 -91.5q-35 -26 -57 -10l-15 10q-23 16 -7 36z" />
    <glyph glyph-name="quotesinglbase" unicode="&#x201a;" horiz-adv-x="268"
d="M88 -7q-25 12 -40 35.5t-15 51.5q0 41 28.5 70t70.5 29t72 -29.5t30 -76.5q0 -58 -40.5 -115.5t-85.5 -91.5q-34 -23 -58 -8l-14 9q-23 16 -7 36z" />
    <glyph glyph-name="quotedblleft" unicode="&#x201c;" horiz-adv-x="499"
d="M403 573q25 -12 40.5 -35.5t15.5 -51.5q0 -42 -28.5 -70.5t-71.5 -28.5q-41 0 -71 29.5t-30 76.5q0 58 40.5 115t85.5 91q33 25 57 9l14 -9q24 -16 8 -37zM169 573q26 -12 41 -35.5t15 -51.5q0 -42 -28.5 -70.5t-70.5 -28.5t-71.5 29.5t-29.5 76.5q0 58 40.5 115.5
t85.5 90.5q32 25 57 9l14 -9q22 -16 7 -37z" />
    <glyph glyph-name="quotedblright" unicode="&#x201d;" horiz-adv-x="500"
d="M100 529q-25 12 -40.5 35.5t-15.5 51.5q0 41 29 69.5t71 28.5t72 -29t30 -76q0 -58 -40.5 -114.5t-85.5 -91.5q-35 -26 -57 -10l-15 10q-23 16 -7 36zM334 529q-26 12 -41 35.5t-15 51.5q0 41 28.5 69.5t70.5 28.5q43 0 72.5 -29t29.5 -76q0 -59 -40.5 -115.5
t-85.5 -90.5q-33 -26 -57 -10l-15 10q-22 16 -7 36z" />
    <glyph glyph-name="quotedblbase" unicode="&#x201e;" horiz-adv-x="503"
d="M90 -7q-26 12 -41.5 35.5t-15.5 51.5q0 42 28.5 70.5t71.5 28.5q42 0 72 -29.5t30 -76.5q0 -58 -40.5 -115.5t-85.5 -91.5q-34 -24 -57 -8l-15 9q-23 17 -7 36zM323 -7q-25 12 -40.5 35.5t-15.5 51.5q0 42 28.5 70.5t71.5 28.5q42 0 72 -29.5t30 -76.5
q0 -58 -40.5 -115.5t-85.5 -91.5q-34 -23 -58 -8l-14 9q-23 16 -7 36z" />
    <glyph glyph-name="dagger" unicode="&#x2020;" horiz-adv-x="467"
d="M294 421v-260q0 -8 -5.5 -13.5t-12.5 -5.5h-84q-8 0 -13.5 6t-5.5 13v260h-120q-8 0 -13 5.5t-5 13.5v77q0 7 5.5 12.5t12.5 5.5h120v146q0 8 5.5 13.5t13.5 5.5h84q8 0 13 -5.5t5 -13.5v-146h121q7 0 12.5 -5.5t5.5 -12.5v-77q0 -8 -5 -13.5t-13 -5.5h-121z" />
    <glyph glyph-name="daggerdbl" unicode="&#x2021;" horiz-adv-x="467"
d="M293 176v-157q0 -19 -18 -19h-84q-8 0 -13.5 5.5t-5.5 13.5v157h-119q-8 0 -13.5 5.5t-5.5 12.5v78q0 7 5.5 12.5t13.5 5.5h119v120h-119q-8 0 -13.5 5.5t-5.5 12.5v78q0 7 5.5 12.5t13.5 5.5h119v157q0 8 5.5 13.5t13.5 5.5h84q18 0 18 -19v-157h122q7 0 12.5 -5
t5.5 -13v-78q0 -8 -5.5 -13t-12.5 -5h-122v-120h122q7 0 12.5 -5t5.5 -13v-78q0 -8 -5.5 -13t-12.5 -5h-122z" />
    <glyph glyph-name="bullet" unicode="&#x2022;" horiz-adv-x="378"
d="M189 217q-56 0 -95.5 39.5t-39.5 95.5t39.5 95.5t95.5 39.5q55 0 95 -39.5t40 -95.5t-39.5 -95.5t-95.5 -39.5z" />
    <glyph glyph-name="ellipsis" unicode="&#x2026;" horiz-adv-x="848"
d="M125 -14q-39 0 -66.5 27.5t-27.5 66.5t27.5 66.5t66.5 27.5t67 -27.5t28 -66.5t-28 -66.5t-67 -27.5zM424 -14q-39 0 -66.5 27.5t-27.5 66.5t27.5 66.5t66.5 27.5q40 0 67 -27.5t27 -66.5t-27 -66.5t-67 -27.5zM723 -14q-39 0 -66.5 27.5t-27.5 66.5t27.5 66.5t66.5 27.5
t66.5 -27.5t27.5 -66.5t-27.5 -66.5t-66.5 -27.5z" />
    <glyph glyph-name="perthousand" unicode="&#x2030;" horiz-adv-x="1034"
d="M170 707q66 0 103 -50t37 -131t-37 -132t-103 -51t-103 51t-37 132t37 131t103 50zM139 0h-29q-15 0 -20 11t3 22l441 649q11 18 32 18h28q16 0 21 -11t-3 -22l-441 -649q-11 -18 -32 -18zM113 524q0 -112 57 -112q58 0 58 112q0 114 -58 114q-57 0 -57 -114zM865 355
q67 0 104 -50.5t37 -130.5q0 -82 -37 -132.5t-104 -50.5q-66 0 -102.5 50.5t-36.5 132.5q0 80 36.5 130.5t102.5 50.5zM536 355q66 0 103 -50.5t37 -130.5q0 -82 -36.5 -132.5t-103.5 -50.5t-103.5 50.5t-36.5 132.5q0 80 36.5 130.5t103.5 50.5zM808 171q0 -112 57 -112
q58 0 58 112q0 115 -58 115q-57 0 -57 -115zM479 171q0 -112 57 -112t57 112q0 115 -57 115t-57 -115z" />
    <glyph glyph-name="guilsinglleft" unicode="&#x2039;" horiz-adv-x="323"
d="M276 8h-98q-21 0 -32 18l-116 203q-10 17 0 33l116 204q10 17 32 17h98q9 0 13.5 -9t0.5 -19l-105 -210l105 -208q4 -10 -0.5 -19.5t-13.5 -9.5z" />
    <glyph glyph-name="guilsinglright" unicode="&#x203a;" horiz-adv-x="322"
d="M293 229l-116 -203q-11 -18 -32 -18h-97q-9 0 -14 9t0 20l104 208l-104 210q-6 11 -1 19.5t15 8.5h97q22 0 32 -17l116 -204q8 -16 0 -33z" />
    <glyph glyph-name="fraction" unicode="&#x2044;" horiz-adv-x="140"
d="M329 667l-449 -648q-12 -19 -32 -19h-20q-16 0 -21 11t4 22l449 648q12 19 32 19h20q16 0 21 -11t-4 -22z" />
    <glyph glyph-name="foursuperior" unicode="&#x2074;" horiz-adv-x="327"
d="M245 499h-53q-5 0 -9 3.5t-4 8.5v73h-156q-5 0 -9 3.5t-4 8.5v39q0 18 8 28l131 177q7 10 17 10h79q5 0 9 -4t4 -8v-191h45q12 0 12 -13v-38q0 -12 -12 -12h-45v-73q0 -4 -4 -8t-9 -4zM84 647h95v127z" />
    <glyph glyph-name="Euro" unicode="&#x20ac;" horiz-adv-x="699"
d="M424 -14q-122 0 -210.5 66t-113.5 179h-46q-10 0 -16.5 6.5t-6.5 15.5v42q0 9 6.5 16t16.5 7h29q-2 20 -2 32t2 32h-29q-10 0 -16.5 7t-6.5 16v42q0 9 6.5 15.5t16.5 6.5h46q26 111 110.5 178t214.5 67q75 0 140.5 -26.5t94.5 -63.5q14 -20 0 -35l-51 -59q-23 -23 -52 1
q-56 46 -132 46q-56 0 -97.5 -28.5t-60.5 -79.5h199q10 0 16.5 -6.5t6.5 -15.5v-42q0 -9 -6.5 -16t-16.5 -7h-226q-2 -20 -2 -32t2 -32h226q10 0 16.5 -7t6.5 -16v-42q0 -9 -6.5 -15.5t-16.5 -6.5h-199q19 -50 61 -79t97 -29q76 0 131 46q30 24 52 1l52 -59q14 -15 0 -35
q-29 -37 -94.5 -63.5t-141.5 -26.5z" />
    <glyph glyph-name="trademark" horiz-adv-x="847"
d="M30 640v47q0 13 13 13h290q5 0 8.5 -4t3.5 -9v-47q0 -12 -12 -12h-105v-262q0 -13 -12 -13h-57q-13 0 -13 13v262h-103q-13 0 -13 12zM512 687l74 -169l76 169q6 13 17 13h93q12 0 12 -13v-322q0 -12 -12 -12h-56q-12 0 -12 13v237l-76 -165q-6 -13 -18 -13h-50
q-11 0 -17 13l-75 165v-237q0 -13 -13 -13h-56q-13 0 -13 12v322q0 13 13 13h96q11 0 17 -13z" />
    <glyph glyph-name="onethird" horiz-adv-x="687"
d="M568 667l-449 -648q-12 -19 -32 -19h-20q-16 0 -21 11t4 22l449 648q12 19 32 19h20q16 0 21 -11t-4 -22zM34 603v41q0 13 12 13h14q33 0 47 30q6 13 20 13h32q13 0 13 -12v-327q0 -12 -13 -12h-54q-5 0 -8.5 3.5t-3.5 8.5v231h-47q-4 0 -8 3.5t-4 7.5zM523 288
q-35 0 -54 -35q-7 -11 -18 -6l-37 17q-13 6 -7 20q10 27 42 48.5t79 21.5q46 0 78.5 -25t32.5 -66q0 -24 -13 -44t-34 -29q29 -7 47.5 -30t18.5 -57q0 -51 -39 -82t-98 -31q-61 0 -99 32t-38 84v7q0 12 11 12h53q13 0 13 -12v-3q0 -24 16 -39t44 -15q26 0 41 14t15 35
q0 20 -15 32.5t-41 12.5h-12q-11 0 -11 12v37q0 12 11 12h12q19 0 32 11t13 28t-12 27.5t-31 10.5z" />
    <glyph glyph-name="twothirds" horiz-adv-x="777"
d="M290 350h-236q-12 0 -12 11v42q0 10 8 18l98 82q33 27 48.5 46.5t15.5 40.5q0 19 -14 31.5t-34 12.5q-39 0 -58 -44q-8 -18 -24 -12l-40 15q-12 5 -9 18q11 39 46.5 67.5t89.5 28.5q53 0 89 -31t36 -81q0 -38 -23 -69t-68 -67l-49 -38h136q12 0 12 -11v-48q0 -12 -12 -12
zM658 667l-449 -648q-12 -19 -32 -19h-20q-16 0 -21 11t4 22l449 648q12 19 32 19h20q16 0 21 -11t-4 -22zM613 288q-35 0 -54 -35q-7 -11 -18 -6l-37 17q-13 6 -7 20q10 27 42 48.5t79 21.5q46 0 78.5 -25t32.5 -66q0 -24 -13 -44t-34 -29q29 -7 47.5 -30t18.5 -57
q0 -51 -39 -82t-98 -31q-61 0 -99 32t-38 84v7q0 12 11 12h53q13 0 13 -12v-3q0 -24 16 -39t44 -15q26 0 41 14t15 35q0 20 -15 32.5t-41 12.5h-12q-11 0 -11 12v37q0 12 11 12h12q19 0 32 11t13 28t-12 27.5t-31 10.5z" />
    <glyph glyph-name="oneeight" horiz-adv-x="733"
d="M574 667l-449 -648q-12 -19 -32 -19h-20q-16 0 -21 11t4 22l449 648q12 19 32 19h20q16 0 21 -11t-4 -22zM33 603v41q0 13 12 13h14q33 0 47 30q6 13 20 13h32q13 0 13 -12v-327q0 -12 -13 -12h-54q-4 0 -8 3.5t-4 8.5v231h-47q-4 0 -8 3.5t-4 7.5zM562 -8
q-64 0 -103 31.5t-39 77.5q0 31 17.5 54t42.5 32q-44 22 -44 72q0 43 35 70t91 27t91.5 -27t35.5 -70q0 -49 -45 -72q26 -9 43.5 -32t17.5 -54q0 -46 -39.5 -77.5t-103.5 -31.5zM562 296q-22 0 -37 -11t-15 -29t15 -29.5t37 -11.5q23 0 38 11.5t15 29.5t-15 29t-38 11z
M562 154q-27 0 -44 -14t-17 -35t17 -35t44 -14t44.5 14t17.5 35t-17.5 35t-44.5 14z" />
    <glyph glyph-name="threeeights" horiz-adv-x="746"
d="M626 667l-449 -648q-12 -19 -32 -19h-20q-16 0 -21 11t4 22l449 648q12 19 32 19h20q16 0 21 -11t-4 -22zM168 643q-35 0 -54 -35q-7 -11 -18 -6l-37 17q-13 7 -7 20q10 27 42 48.5t79 21.5t79 -25t32 -66q0 -24 -13 -44t-34 -29q29 -7 47.5 -30t18.5 -57q0 -51 -39 -82
t-98 -31q-61 0 -99 32t-38 84v7q0 12 11 12h53q13 0 13 -12v-3q0 -24 16 -39t44 -15q26 0 41 14t15 35q0 20 -15 32.5t-41 12.5h-12q-11 0 -11 12v37q0 12 11 12h12q19 0 32 11t13 28t-12 27.5t-31 10.5zM573 -8q-64 0 -103 31.5t-39 77.5q0 31 17.5 54t42.5 32
q-44 22 -44 72q0 43 35 70t91 27t91.5 -27t35.5 -70q0 -49 -45 -72q26 -9 43.5 -32t17.5 -54q0 -46 -39.5 -77.5t-103.5 -31.5zM573 296q-22 0 -37 -11t-15 -29t15 -29.5t37 -11.5q23 0 38 11.5t15 29.5t-15 29t-38 11zM573 154q-27 0 -44 -14t-17 -35t17 -35t44 -14
t44.5 14t17.5 35t-17.5 35t-44.5 14z" />
    <glyph glyph-name="fiveeights" horiz-adv-x="743"
d="M624 666l-449 -648q-12 -19 -32 -19h-20q-16 0 -21 11t4 22l449 648q12 19 32 19h20q16 0 21 -11t-4 -22zM163 342q-91 0 -129 59q-9 12 6 21l32 25q12 9 23 -4q28 -32 67 -32q27 0 44 15.5t17 38.5q0 25 -17 39t-42 14t-48 -17q-7 -4 -13 -3l-47 10q-10 3 -9 12l12 168
q2 12 13 12h197q12 0 12 -12v-47q0 -5 -3.5 -8.5t-8.5 -3.5h-149l-5 -66q32 19 69 19q48 0 83 -31.5t35 -83.5q0 -53 -38.5 -89t-100.5 -36zM571 -8q-64 0 -103 31.5t-39 77.5q0 31 17.5 54t42.5 32q-44 22 -44 72q0 43 35 70t91 27t91.5 -27t35.5 -70q0 -49 -45 -72
q26 -9 43.5 -32t17.5 -54q0 -46 -39.5 -77.5t-103.5 -31.5zM571 296q-22 0 -37 -11t-15 -29t15 -29.5t37 -11.5q23 0 38 11.5t15 29.5t-15 29t-38 11zM571 154q-27 0 -44 -14t-17 -35t17 -35t44 -14t44.5 14t17.5 35t-17.5 35t-44.5 14z" />
    <glyph glyph-name="seveneights" horiz-adv-x="696"
d="M576 667l-449 -648q-12 -19 -32 -19h-20q-16 0 -21 11t4 22l449 648q12 19 32 19h20q16 0 21 -11t-4 -22zM147 349h-61q-7 0 -9.5 5t1.5 12l124 263h-157q-13 0 -13 13v46q0 5 4 8.5t9 3.5h233q13 0 13 -12v-28q0 -15 -7 -27l-122 -275q-5 -9 -15 -9zM523 -8
q-64 0 -103 31.5t-39 77.5q0 31 17.5 54t42.5 32q-44 22 -44 72q0 43 35 70t91 27t91.5 -27t35.5 -70q0 -49 -45 -72q26 -9 43.5 -32t17.5 -54q0 -46 -39.5 -77.5t-103.5 -31.5zM523 296q-22 0 -37 -11t-15 -29t15 -29.5t37 -11.5q23 0 38 11.5t15 29.5t-15 29t-38 11z
M523 154q-27 0 -44 -14t-17 -35t17 -35t44 -14t44.5 14t17.5 35t-17.5 35t-44.5 14z" />
    <glyph glyph-name="arrowup" horiz-adv-x="800"
d="M127 568l253 191q8 6 20 6t19 -6l255 -191q16 -11 16 -35v-111q0 -11 -9 -15t-25 6l-185 141v-598q0 -10 -6.5 -16.5t-16.5 -6.5h-96q-10 0 -16.5 7t-6.5 17v597l-185 -141q-16 -10 -25 -6t-9 15v111q0 24 17 35z" />
    <glyph glyph-name="arrowdown" horiz-adv-x="800"
d="M127 131q-17 10 -17 35v111q0 11 9 14.5t25 -6.5l185 -140v597q0 9 6.5 16.5t16.5 7.5h96q10 0 16.5 -7t6.5 -16v-598l185 140q16 10 25 6.5t9 -13.5v-112q0 -25 -16 -35l-255 -192q-8 -5 -19.5 -5t-19.5 5z" />
    <glyph glyph-name="arrowupleft" horiz-adv-x="880"
d="M493 711q19 6 37 -12l78 -79q8 -7 4 -16.5t-22 -12.5l-230 -32l428 -428q8 -7 8 -16.5t-7 -16.5l-68 -68q-6 -7 -15.5 -7t-16.5 7l-429 429l-31 -230q-3 -18 -13.5 -22.5t-16.5 3.5l-79 80q-17 17 -13 35l44 315q2 10 10.5 18.5t17.5 9.5z" />
    <glyph glyph-name="arrowupright" horiz-adv-x="880"
d="M386 711l315 -43q9 -1 17.5 -9.5t9.5 -18.5l45 -315q4 -18 -13 -35l-80 -80q-6 -8 -16 -3.5t-13 22.5l-31 230l-430 -429q-16 -16 -32 0l-68 68q-16 16 1 33l428 428l-230 32q-17 3 -21.5 12.5t3.5 16.5l79 79q16 18 36 12z" />
    <glyph glyph-name="arrowdownright" horiz-adv-x="880"
d="M387 23q-20 -4 -37 13l-79 79q-8 7 -4 16.5t22 12.5l230 32l-428 428q-16 18 -1 33l68 68q16 16 33 0l429 -428l31 230q3 17 13.5 21.5t16.5 -3.5l78 -80q18 -16 14 -35l-44 -315q-2 -10 -10.5 -18t-18.5 -10z" />
    <glyph glyph-name="arrowdownleft" horiz-adv-x="880"
d="M493 23l-314 44q-9 2 -17.5 10t-10.5 18l-44 315q-4 18 13 35l79 80q6 8 16.5 3.5t13.5 -21.5l31 -230l429 428q17 16 33 0l67 -68q16 -15 0 -33l-428 -428l230 -32q17 -3 21.5 -12.5t-3.5 -16.5l-79 -79q-17 -17 -37 -13z" />
    <glyph glyph-name="product" horiz-adv-x="906"
d="M32 350q0 175 122.5 296t299.5 121q176 0 298 -121t122 -296t-122 -295.5t-298 -120.5q-177 0 -299.5 120.5t-122.5 295.5zM790 350q0 144 -97 243t-239 99q-144 0 -240.5 -99t-96.5 -243t96.5 -242.5t240.5 -98.5q142 0 239 98.5t97 242.5zM297 597h194q88 0 139 -50
t51 -120q0 -69 -51 -119t-139 -50h-92v-139q0 -16 -16 -16h-86q-17 0 -17 16v461q0 7 5 12t12 5zM557 427q0 31 -20 50t-51 19h-87v-138h87q31 1 51 20t20 49z" />
    <glyph glyph-name="minus" unicode="&#x2212;" horiz-adv-x="631"
d="M581 400v-97q0 -10 -6.5 -16.5t-15.5 -6.5h-487q-9 0 -15.5 6.5t-6.5 16.5v97q0 9 6.5 16t15.5 7h487q9 0 15.5 -7t6.5 -16z" />
    <glyph glyph-name="logo.01" horiz-adv-x="1209"
d="M572 -162q-97 44 -187 107.5t-166.5 144.5t-122.5 181.5t-46 203.5q0 74 27 143t75 119q91 93 235 93q124 0 222 -86q94 84 217 84q141 0 232 -94q48 -49 74.5 -118t26.5 -143q0 -85 -32 -168t-84 -151.5t-121.5 -130t-141.5 -107t-146 -78.5q-31 -14 -62 0z" />
    <glyph glyph-name="i.TRK" horiz-adv-x="230"
d="M116 539q-36 0 -61.5 26t-25.5 61q0 36 25.5 62t61.5 26q35 0 60.5 -26t25.5 -62q0 -35 -25.5 -61t-60.5 -26zM166 0h-101q-9 0 -15.5 6.5t-6.5 15.5v443q0 9 6.5 15.5t15.5 6.5h101q9 0 15 -6.5t6 -15.5v-443q0 -9 -6 -15.5t-15 -6.5z" />
    <glyph glyph-name="zero.numr" horiz-adv-x="324"
d="M22 524q0 81 37 131.5t103 50.5q67 0 103.5 -50.5t36.5 -131.5t-36.5 -131.5t-103.5 -50.5q-66 0 -103 50.5t-37 131.5zM105 522q0 -112 57 -112q58 0 58 112q0 115 -58 115q-57 0 -57 -115z" />
    <glyph glyph-name="one.numr" horiz-adv-x="191"
d="M11 603v41q0 13 12 13h14q33 0 47 30q6 13 20 13h32q13 0 13 -12v-327q0 -12 -13 -12h-54q-4 0 -8 3.5t-4 8.5v231h-47q-4 0 -8 3.5t-4 7.5z" />
    <glyph glyph-name="two.numr" horiz-adv-x="307"
d="M274 349h-236q-12 0 -12 11v42q0 10 8 18l98 82q33 27 48.5 46.5t15.5 40.5q0 19 -14 31.5t-34 12.5q-39 0 -58 -44q-8 -18 -24 -12l-40 15q-12 5 -9 18q11 40 47 68t89 28t89 -31t36 -81q0 -38 -23 -69t-68 -67l-49 -38h136q12 0 12 -11v-48q0 -12 -12 -12z" />
    <glyph glyph-name="three.numr" horiz-adv-x="308"
d="M153 640q-35 0 -54 -35q-7 -11 -18 -6l-37 17q-13 6 -7 20q10 27 42 48.5t79 21.5t79 -25t32 -66q0 -24 -13 -44t-34 -29q29 -7 47.5 -30t18.5 -57q0 -51 -39 -82t-98 -31q-61 0 -99 32t-38 84v7q0 12 11 12h53q13 0 13 -12v-3q0 -24 16 -39t44 -15q26 0 41 14t15 35
q0 20 -15 32.5t-41 12.5h-12q-11 0 -11 12v37q0 12 11 12h12q19 0 32 11t13 28t-12 27.5t-31 10.5z" />
    <glyph glyph-name="four.numr" horiz-adv-x="327"
d="M246 349h-53q-5 0 -9 3.5t-4 8.5v73h-156q-5 0 -9 3.5t-4 8.5v39q0 18 8 28l131 177q7 10 17 10h79q5 0 9 -4t4 -8v-191h45q12 0 12 -13v-38q0 -12 -12 -12h-45v-73q0 -4 -4 -8t-9 -4zM85 497h95v127z" />
    <glyph glyph-name="five.numr" horiz-adv-x="304"
d="M148 342q-91 0 -129 59q-9 12 6 21l32 25q12 9 23 -4q28 -32 67 -32q27 0 44 15.5t17 38.5q0 25 -17 39t-42 14t-48 -17q-7 -4 -13 -3l-47 10q-10 3 -9 12l12 168q2 12 13 12h197q12 0 12 -12v-47q0 -5 -4 -8.5t-8 -3.5h-149l-5 -66q32 19 69 19q48 0 83 -31.5t35 -83.5
q0 -53 -38.5 -89t-100.5 -36z" />
    <glyph glyph-name="six.numr" horiz-adv-x="310"
d="M299 468q0 -54 -39 -90.5t-98 -36.5q-63 0 -102.5 38.5t-39.5 98.5q0 43 22.5 87t45 69t57.5 58q5 7 16 7h58q9 0 11.5 -8t-3.5 -13l-51 -54q-52 -54 -56 -60q25 16 60 16q49 0 84 -32t35 -80zM101 464q0 -25 17 -41t43 -16q24 0 41 16.5t17 40.5q0 25 -17 41.5t-41 16.5
q-26 0 -43 -16.5t-17 -41.5z" />
    <glyph glyph-name="seven.numr" horiz-adv-x="280"
d="M125 349h-61q-7 0 -9.5 5t1.5 12l124 263h-157q-13 0 -13 13v46q0 5 4 8.5t9 3.5h233q13 0 13 -12v-28q0 -15 -7 -27l-122 -275q-5 -9 -15 -9z" />
    <glyph glyph-name="eight.numr" horiz-adv-x="325"
d="M162 342q-64 0 -103 31.5t-39 77.5q0 31 17.5 54t42.5 32q-44 22 -44 72q0 43 35 70t91 27t91.5 -27t35.5 -70q0 -49 -45 -72q26 -9 43.5 -32t17.5 -54q0 -46 -39.5 -77.5t-103.5 -31.5zM162 646q-22 0 -37 -11t-15 -29t15 -29.5t37 -11.5q23 0 38 11.5t15 29.5t-15 29
t-38 11zM162 504q-27 0 -44 -14t-17 -35t17 -35t44 -14t44.5 14t17.5 35t-17.5 35t-44.5 14z" />
    <glyph glyph-name="nine.numr" horiz-adv-x="310"
d="M11 580q0 54 38.5 90.5t97.5 36.5q63 0 103 -38.5t40 -98.5q0 -43 -23.5 -88t-43.5 -67t-58 -59q-5 -6 -17 -6h-58q-9 0 -12 7.5t3 12.5q97 98 108 115q-27 -17 -60 -17q-49 0 -83.5 32t-34.5 80zM208 584q0 25 -17 41t-43 16q-24 0 -40.5 -16t-16.5 -41t16.5 -41.5
t40.5 -16.5q26 0 43 16.5t17 41.5z" />
    <glyph glyph-name="zero.dnom" horiz-adv-x="324"
d="M22 174q0 81 37 131.5t103 50.5q67 0 103.5 -50.5t36.5 -131.5t-36.5 -131.5t-103.5 -50.5q-66 0 -103 50.5t-37 131.5zM105 172q0 -112 57 -112q58 0 58 112q0 115 -58 115q-57 0 -57 -115z" />
    <glyph glyph-name="one.dnom" horiz-adv-x="191"
d="M11 254v41q0 13 12 13h14q33 0 47 30q6 13 20 13h32q13 0 13 -12v-327q0 -12 -13 -12h-54q-4 0 -8 4t-4 8v231h-47q-4 0 -8 3.5t-4 7.5z" />
    <glyph glyph-name="two.dnom" horiz-adv-x="307"
d="M274 0h-236q-12 0 -12 11v42q0 10 8 18l98 82q33 27 48.5 46.5t15.5 40.5q0 19 -14 31.5t-34 12.5q-39 0 -58 -44q-8 -18 -24 -12l-40 15q-12 5 -9 18q11 39 47 67.5t89 28.5t89 -31t36 -81q0 -38 -23 -69t-68 -67l-49 -38h136q12 0 12 -11v-48q0 -12 -12 -12z" />
    <glyph glyph-name="three.dnom" horiz-adv-x="308"
d="M153 290q-35 0 -54 -35q-7 -11 -18 -6l-37 17q-13 6 -7 20q10 27 42 48.5t79 21.5t79 -25t32 -66q0 -24 -13 -44t-34 -29q29 -7 47.5 -30t18.5 -57q0 -51 -39 -82t-98 -31q-61 0 -99 32t-38 84v7q0 12 11 12h53q13 0 13 -12v-3q0 -24 16 -39t44 -15q26 0 41 14t15 35
q0 20 -15 32.5t-41 12.5h-12q-11 0 -11 12v37q0 12 11 12h12q19 0 32 11t13 28t-12 27.5t-31 10.5z" />
    <glyph glyph-name="four.dnom" horiz-adv-x="327"
d="M246 0h-53q-5 0 -9 3.5t-4 8.5v73h-156q-5 0 -9 3.5t-4 8.5v39q0 18 8 28l131 177q7 10 17 10h79q5 0 9 -4t4 -8v-191h45q12 0 12 -13v-38q0 -12 -12 -12h-45v-73q0 -4 -4 -8t-9 -4zM85 148h95v127z" />
    <glyph glyph-name="five.dnom" horiz-adv-x="304"
d="M148 -7q-91 0 -129 59q-9 12 6 21l32 25q12 9 23 -4q28 -32 67 -32q27 0 44 15.5t17 38.5q0 25 -17 39t-42 14t-48 -17q-7 -4 -13 -3l-47 10q-10 3 -9 12l12 168q2 12 13 12h197q12 0 12 -12v-47q0 -4 -4 -8t-8 -4h-149l-5 -66q32 19 69 19q48 0 83 -31.5t35 -83.5
q0 -53 -38.5 -89t-100.5 -36z" />
    <glyph glyph-name="six.dnom" horiz-adv-x="310"
d="M299 119q0 -54 -39 -90.5t-98 -36.5q-63 0 -102.5 38.5t-39.5 98.5q0 43 22.5 87t45 69t57.5 58q5 7 16 7h58q9 0 11.5 -8t-3.5 -13l-51 -54q-52 -54 -56 -60q25 16 60 16q49 0 84 -32t35 -80zM101 115q0 -25 17 -41t43 -16q24 0 41 16.5t17 40.5q0 25 -17 41.5t-41 16.5
q-26 0 -43 -16.5t-17 -41.5z" />
    <glyph glyph-name="seven.dnom" horiz-adv-x="280"
d="M125 0h-61q-7 0 -9.5 5t1.5 12l124 263h-157q-13 0 -13 13v46q0 5 4 8.5t9 3.5h233q13 0 13 -12v-28q0 -15 -7 -27l-122 -275q-5 -9 -15 -9z" />
    <glyph glyph-name="eight.dnom" horiz-adv-x="325"
d="M162 -8q-64 0 -103 31.5t-39 77.5q0 31 17.5 54t42.5 32q-44 22 -44 72q0 43 35 70t91 27t91.5 -27t35.5 -70q0 -49 -45 -72q26 -9 43.5 -32t17.5 -54q0 -46 -39.5 -77.5t-103.5 -31.5zM162 296q-22 0 -37 -11t-15 -29t15 -29.5t37 -11.5q23 0 38 11.5t15 29.5t-15 29
t-38 11zM162 154q-27 0 -44 -14t-17 -35t17 -35t44 -14t44.5 14t17.5 35t-17.5 35t-44.5 14z" />
    <glyph glyph-name="nine.dnom" horiz-adv-x="310"
d="M11 230q0 54 38.5 90.5t97.5 36.5q63 0 103 -38.5t40 -98.5q0 -43 -23.5 -88t-43.5 -67t-58 -59q-5 -6 -17 -6h-58q-9 0 -12 7.5t3 12.5q97 98 108 115q-27 -17 -60 -17q-49 0 -83.5 32t-34.5 80zM208 234q0 25 -17 41t-43 16q-24 0 -40.5 -16t-16.5 -41t16.5 -41.5
t40.5 -16.5q26 0 43 16.5t17 41.5z" />
    <glyph glyph-name="less.alt" horiz-adv-x="960"
d="M257 623q10 17 34 17h112q10 0 14 -8.5t-6 -24.5l-141 -186h597q10 0 17 -6.5t7 -16.5v-96q0 -9 -6.5 -16t-16.5 -7h-598l141 -185q10 -16 6 -25t-14 -9h-112q-23 0 -34 16l-192 255q-6 8 -6 19.5t6 19.5z" />
    <glyph glyph-name="greater.alt" horiz-adv-x="960"
d="M703 623l192 -253q6 -8 6 -19.5t-6 -19.5l-192 -255q-11 -16 -34 -16h-112q-10 0 -14 9t6 25l141 185h-598q-10 0 -16.5 7t-6.5 16v96q0 10 7 16.5t17 6.5h597l-141 186q-10 16 -6 24.5t14 8.5h112q24 0 34 -17z" />
    <glyph glyph-name="logo" horiz-adv-x="1209"
d="M572 -162q-97 44 -187 107.5t-166.5 144.5t-122.5 181.5t-46 203.5q0 74 27 143t75 119q91 93 235 93q124 0 222 -86q94 84 217 84q141 0 232 -94q48 -49 74.5 -118t26.5 -143q0 -85 -32 -168t-84 -151.5t-121.5 -130t-141.5 -107t-146 -78.5q-31 -14 -62 0zM594 -124
q9 -4 18 0q11 4 38 17.5t88 51t115 79.5q106 83 171 179q91 133 91 271q0 67 -24.5 128.5t-69.5 105.5q-82 79 -198 79q-121 0 -218 -87q-102 88 -221 88q-114 0 -195 -78q-45 -44 -70 -106.5t-25 -130.5q0 -137 90 -268q67 -98 171 -180q53 -43 113.5 -80.5t87.5 -51
t38 -17.5zM399 496q11 0 17 8q13 12 4 34l-63 159q-7 17 -24 10t-10 -24l34 -86l-98 -22q-18 -4 -14 -22t22 -14l104 23l9 -22q-7 -9 -7 -18q0 -10 7.5 -18t18.5 -8zM857 515q29 -8 55 7q25 13 34.5 39.5t-2.5 49.5l-33 67q-3 7 -11 9t-14 -1l-135 -74q-16 -9 -7 -25t25 -7
l27 15l26 -50q11 -22 35 -30zM458 622q13 0 22.5 10t9.5 22q0 14 -9 23.5t-23 9.5t-23 -9.5t-9 -22.5q0 -14 9.5 -23.5t22.5 -9.5zM603 506q-48 0 -92 14q47 82 94 130q43 -44 93 -129q-43 -15 -95 -15zM895 553q-29 -13 -41 8l-26 52l59 32l25 -50q5 -12 0 -24t-17 -18z
M904 301q7 3 10 10t0 13l-40 90l33 15l15 -33q7 -16 24 -9q16 7 9 24l-15 34l31 15l32 -72q7 -16 24 -9q16 7 9 24l-40 89q-3 7 -10 10q-8 2 -14 -1l-129 -62q-16 -9 -9 -24l47 -105q7 -16 23 -9zM492 79h241q19 0 19 18q0 7 -5 12.5t-13 5.5h-179q34 18 57 32.5t53.5 39
t46.5 54.5t16 63q0 50 -33 87t-90 37q-56 0 -93.5 -32.5t-37.5 -83.5q0 -36 24.5 -64.5t62.5 -28.5q30 0 54 19t24 54q0 23 -11.5 33.5t-24.5 10.5q-14 0 -23.5 -9.5t-9.5 -22.5q0 -17 15 -27q1 -1 0 -6.5t-7.5 -10.5t-18.5 -5q-22 0 -34.5 18.5t-12.5 39.5q0 36 25 58
t66 22q40 0 62.5 -26t22.5 -62q0 -68 -109 -139q-22 -14 -46.5 -27t-38.5 -20.5t-15 -8.5q-8 -10 -4 -20q5 -11 17 -11zM191 350q18 -5 23 12l17 50l114 -40q18 -7 23 11q3 7 -0.5 14t-10.5 9l-115 41l15 47q5 18 -12 23q-7 2 -14 -1.5t-9 -10.5l-43 -132q-2 -7 1.5 -14
t10.5 -9zM603 -90q-116 56 -226 144q-103 82 -163 172q-83 120 -83 248t84 210q71 68 172 68t192 -77q-55 -58 -99 -135q-77 -135 -123 -319l-50 10q-7 2 -13.5 -2t-7.5 -11q-4 -16 14 -20l135 -29q16 -4 20 13q3 17 -13 21l-48 10q39 155 100 274q52 -19 109 -19
q60 0 112 20q62 -124 98 -276l-48 -10q-16 -4 -14 -20q4 -18 21 -14l135 28q17 4 13 20q-1 7 -7 11.5t-13 2.5l-49 -10l-1 1v2q-47 186 -123 320q-43 78 -95 131q90 77 191 77q103 0 172 -69q83 -81 83 -209q0 -125 -84 -250q-62 -89 -164 -170q-108 -86 -227 -143zM603 -30
q13 0 22.5 10t9.5 22q0 14 -9 23.5t-23 9.5t-23 -9.5t-9 -22.5q0 -14 9.5 -23.5t22.5 -9.5z" />
    </font>
</defs>
</svg>
