<?xml version="1.0" standalone="no"?>
<!DOCTYPE svg PUBLIC "-//W3C//DTD SVG 1.1//EN" "http://www.w3.org/Graphics/SVG/1.1/DTD/svg11.dtd" >
<svg xmlns="http://www.w3.org/2000/svg" xmlns:xlink="http://www.w3.org/1999/xlink" version="1.1">
<metadata>
Created by FontForge 20170731 at Wed Mar 27 07:09:08 2019
 By Aleksey,,,
Copyright (c) 2001 by Henrik Kubel, A2/SW/HK + A2-TYPE. All rights reserved.
</metadata>
<defs>
<font id="Boing-Light" horiz-adv-x="578" >
  <font-face
    font-family="Boing Light"
    font-weight="300"
    font-stretch="normal"
    units-per-em="1000"
    panose-1="0 0 0 0 0 0 0 0 0 0"
    ascent="800"
    descent="-200"
    x-height="464"
    cap-height="700"
    bbox="-202.667 -252 1166 967"
    underline-thickness="50"
    underline-position="-225"
    unicode-range="U+0020-2212"
  />
<missing-glyph horiz-adv-x="0"
 />
    <glyph glyph-name="f_f" unicode="ff" horiz-adv-x="526"
d="M399 569v-105h101q7 0 12 -5t5 -12v-25q0 -7 -5 -12t-12 -5h-101v-388q0 -7 -5 -12t-12 -5h-35q-7 0 -12 5t-5 12v388h-161v-388q0 -7 -4.5 -12t-11.5 -5h-36q-7 0 -12 5t-5 12v388h-72q-7 0 -11.5 5t-4.5 12v25q0 7 4.5 12t11.5 5h72v106q0 66 36.5 98t87.5 32h22
q19 0 19 -18v-29q0 -15 -15 -15h-11q-70 -1 -70 -71v-103h161v107q0 70 42 107t100 37q61 0 101 -32q13 -10 2 -23l-16 -21q-8 -13 -28 -2q-27 16 -56 16q-34 0 -55 -23t-21 -61z" />
    <glyph glyph-name="fi" unicode="fi" horiz-adv-x="466"
d="M169 405v-388q0 -7 -4.5 -12t-11.5 -5h-36q-7 0 -12 5t-5 12v388h-72q-16 0 -16 16v26q0 7 4.5 12t11.5 5h72v107q0 70 41.5 107t99.5 37q61 0 102 -32q12 -10 2 -23l-16 -21q-9 -13 -29 -2q-27 16 -56 16q-33 0 -54 -23t-21 -61v-105h214q7 0 12 -5t5 -12v-430
q0 -7 -5 -12t-12 -5h-36q-7 0 -12 5t-5 12v388h-161z" />
    <glyph glyph-name="fl" unicode="fl" horiz-adv-x="501"
d="M330 464v219q0 7 5 12t12 5h36q7 0 12 -5t5 -12v-563q0 -61 59 -61h24q6 0 11 -5t5 -12v-24q0 -8 -5.5 -13t-12.5 -5h-38q-53 0 -83 27.5t-30 84.5v293h-161v-388q0 -7 -4.5 -12t-11.5 -5h-36q-7 0 -12 5t-5 12v388h-72q-7 0 -11.5 5t-4.5 12v25q0 7 4.5 12t11.5 5h72
v106q0 66 36.5 98t87.5 32h22q19 0 19 -18v-29q0 -15 -15 -15h-11q-70 -1 -70 -71v-103h161z" />
    <glyph glyph-name="f_f_i" unicode="ffi" horiz-adv-x="696"
d="M330 571q0 70 42 107t100 37q61 0 101 -32q13 -10 2 -23l-16 -21q-10 -12 -28 -2q-27 16 -56 16q-34 0 -55 -23t-21 -61v-105h215q7 0 11.5 -5t4.5 -12v-430q0 -7 -4.5 -12t-11.5 -5h-36q-7 0 -12 5t-5 12v388h-162v-388q0 -7 -5 -12t-12 -5h-35q-7 0 -12 5t-5 12v388
h-161v-388q0 -7 -4.5 -12t-11.5 -5h-36q-7 0 -12 5t-5 12v388h-72q-7 0 -11.5 5t-4.5 12v25q0 7 4.5 12t11.5 5h72v106q0 66 36.5 98t87.5 32h22q19 0 19 -18v-29q0 -15 -15 -15h-11q-70 -1 -70 -71v-103h161v107z" />
    <glyph glyph-name="f_f_l" unicode="ffl" horiz-adv-x="732"
d="M561 464v219q0 7 5 12t12 5h36q7 0 11.5 -5t4.5 -12v-563q0 -61 60 -61h23q7 0 12 -5t5 -12v-24q0 -18 -19 -18h-38q-52 0 -82 27.5t-30 84.5v293h-162v-388q0 -7 -5 -12t-12 -5h-35q-7 0 -12 5t-5 12v388h-161v-388q0 -7 -4.5 -12t-11.5 -5h-36q-7 0 -12 5t-5 12v388
h-72q-7 0 -11.5 5t-4.5 12v25q0 7 4.5 12t11.5 5h72v106q0 66 36.5 98t87.5 32h22q19 0 19 -18v-29q0 -15 -15 -15h-11q-70 -1 -70 -71v-103h161v106q0 66 36.5 98t87.5 32h23q18 0 18 -18v-29q0 -15 -14 -15h-12q-70 -1 -70 -71v-103h162z" />
    <glyph glyph-name="f_j" unicode="fj" horiz-adv-x="465"
d="M169 569v-105h213q7 0 12 -5t5 -12v-520q0 -72 -41 -109.5t-99 -37.5q-64 0 -101 32q-13 9 -2 22l14 20q11 15 26 5q28 -18 58 -18q33 0 54.5 22.5t21.5 62.5v479h-161v-388q0 -7 -4.5 -12t-11.5 -5h-36q-7 0 -12 5t-5 12v388h-72q-7 0 -11.5 5t-4.5 12v25q0 7 4.5 12
t11.5 5h72v107q0 70 41.5 107t99.5 37q61 0 102 -32q12 -10 2 -23l-16 -21q-9 -13 -29 -2q-27 16 -56 16q-33 0 -54 -23t-21 -61z" />
    <glyph glyph-name="f_b" unicode="fb" horiz-adv-x="842"
d="M330 464v219q0 7 5 12t12 5h36q7 0 11.5 -5t4.5 -12v-306q23 45 70 72t106 27q97 0 164.5 -69.5t67.5 -175.5t-67.5 -175t-164.5 -69q-57 0 -104.5 27.5t-71.5 71.5v-69q0 -7 -4.5 -12t-11.5 -5h-36q-7 0 -12 5t-5 12v388h-161v-388q0 -7 -4.5 -12t-11.5 -5h-36
q-7 0 -12 5t-5 12v388h-72q-7 0 -11.5 5t-4.5 12v25q0 7 4.5 12t11.5 5h72v106q0 66 36.5 98t87.5 32h22q19 0 19 -18v-29q0 -15 -15 -15h-11q-70 -1 -70 -71v-103h161zM399 231q0 -77 47.5 -128.5t121.5 -51.5t121.5 51.5t47.5 128.5t-47.5 129.5t-121.5 52.5t-121.5 -52.5
t-47.5 -129.5z" />
    <glyph glyph-name="f_h" unicode="fh" horiz-adv-x="830"
d="M169 464h161v219q0 7 5 12t12 5h36q7 0 12 -4.5t5 -11.5v-301q21 42 66 67.5t104 25.5q95 0 147.5 -57t52.5 -151v-252q0 -7 -5 -11.5t-11 -4.5h-36q-7 0 -12 4.5t-5 11.5v242q0 74 -38 115t-108 41t-112.5 -43.5t-42.5 -112.5v-242q0 -7 -5 -11.5t-12 -4.5h-36
q-7 0 -12 5t-5 12v388h-161v-388q0 -7 -4.5 -12t-11.5 -5h-36q-7 0 -12 5t-5 12v388h-72q-7 0 -11.5 5t-4.5 12v25q0 7 4.5 12t11.5 5h72v106q0 66 37 98t92 32h17q19 0 19 -18v-29q0 -15 -15 -15h-11q-70 -1 -70 -71v-103z" />
    <glyph glyph-name="f_k" unicode="fk" horiz-adv-x="725"
d="M169 17q0 -7 -4.5 -12t-11.5 -5h-36q-7 0 -12 5t-5 12v388h-72q-7 0 -11.5 5t-4.5 12v25q0 7 4.5 12t11.5 5h72v106q0 66 36.5 98t87.5 32h22q19 0 19 -18v-29q0 -15 -15 -15h-11q-70 -1 -70 -71v-103h161v219q0 7 5 12t12 5h36q7 0 12 -5t5 -12v-398h44l170 169
q10 10 18 10h56q7 0 9 -5.5t-2 -10.5l-195 -187l224 -244q5 -5 2.5 -11t-9.5 -6h-51q-17 0 -27 13l-200 219h-39v-215q0 -7 -5 -12t-12 -5h-36q-7 0 -12 5t-5 12v388h-161v-388z" />
    <glyph glyph-name="f_t" unicode="ft" horiz-adv-x="600"
d="M347 129v276h-178v-388q0 -7 -4.5 -12t-11.5 -5h-36q-7 0 -12 5t-5 12v388h-72q-7 0 -11.5 5t-4.5 12v25q0 7 4.5 12t11.5 5h72v106q0 66 37 98t92 32h17q19 0 19 -18v-29q0 -15 -15 -15h-11q-70 -1 -70 -71v-103h178v151q0 7 5 12t12 5h35q7 0 12 -5t5 -12v-151h149
q7 0 11.5 -5t4.5 -12v-25q0 -7 -4.5 -12t-11.5 -5h-149v-265q0 -40 21.5 -62t54.5 -22q29 0 56 15q19 13 29 -2l13 -20q9 -14 -3 -23q-41 -33 -105 -33q-56 0 -95.5 34.5t-39.5 101.5z" />
    <glyph glyph-name="f_f_j" unicode="ffj" horiz-adv-x="696"
d="M400 569v-105h214q7 0 11.5 -5t4.5 -12v-520q0 -72 -41 -109.5t-99 -37.5q-64 0 -101 32q-13 9 -2 22l14 20q11 15 26 5q29 -18 58 -18q33 0 54.5 22.5t21.5 62.5v479h-161v-388q0 -7 -5 -12t-12 -5h-35q-7 0 -12 5t-5 12v388h-162v-388q0 -7 -4.5 -12t-11.5 -5h-36
q-7 0 -12 5t-5 12v388h-72q-7 0 -11.5 5t-4.5 12v25q0 7 4.5 12t11.5 5h72v106q0 66 37 98t92 32h17q19 0 19 -18v-29q0 -15 -15 -15h-11q-70 -1 -70 -71v-103h162v107q0 70 41.5 107t99.5 37q61 0 101 -32q13 -10 2 -23l-16 -21q-8 -13 -28 -2q-27 16 -56 16
q-33 0 -54 -22.5t-21 -61.5z" />
    <glyph glyph-name="f_f_f" unicode="fff" horiz-adv-x="759"
d="M630 569v-105h103q7 0 12 -5t5 -12v-25q0 -7 -5 -12t-12 -5h-103v-388q0 -7 -4.5 -12t-11.5 -5h-36q-7 0 -12 5t-5 12v388h-162v-388q0 -7 -5 -12t-12 -5h-35q-7 0 -12 5t-5 12v388h-161v-388q0 -7 -4.5 -12t-11.5 -5h-36q-7 0 -12 5t-5 12v388h-72q-7 0 -11.5 5t-4.5 12
v25q0 7 4.5 12t11.5 5h72v106q0 66 36.5 98t87.5 32h22q19 0 19 -18v-29q0 -15 -15 -15h-11q-70 -1 -70 -71v-103h161v106q0 66 36.5 98t87.5 32h23q18 0 18 -18v-29q0 -15 -14 -15h-12q-70 -1 -70 -71v-103h162v107q0 70 42 107t100 37q60 0 101 -32q12 -9 2 -23l-16 -21
q-10 -13 -28 -2q-28 16 -56 16q-34 0 -55 -23t-21 -61z" />
    <glyph glyph-name="f_f_b" unicode="ffb" horiz-adv-x="1074"
d="M1038 231q0 -106 -67.5 -175t-165.5 -69q-57 0 -104 27.5t-71 71.5v-69q0 -7 -5 -12t-12 -5h-35q-7 0 -12 5t-5 12v388h-162v-388q0 -7 -5 -12t-12 -5h-35q-7 0 -12 5t-5 12v388h-161v-388q0 -7 -4.5 -12t-11.5 -5h-36q-7 0 -12 5t-5 12v388h-72q-7 0 -11.5 5t-4.5 12v25
q0 7 4.5 12t11.5 5h72v106q0 66 36.5 98t87.5 32h22q19 0 19 -18v-29q0 -15 -15 -15h-11q-70 -1 -70 -71v-103h161v106q0 66 36.5 98t87.5 32h23q18 0 18 -18v-29q0 -15 -14 -15h-12q-70 -1 -70 -71v-103h162v219q0 7 5 12t12 5h35q7 0 12 -5t5 -12v-306q23 44 70 71.5
t105 27.5q98 0 165.5 -69t67.5 -176zM629 231q0 -76 48 -128t122 -52q73 0 121 52t48 128q0 77 -48 129.5t-121 52.5q-74 0 -122 -52.5t-48 -129.5z" />
    <glyph glyph-name="f_f_h" unicode="ffh" horiz-adv-x="1061"
d="M399 464h162v219q0 7 5 12t12 5h36q6 0 11 -4.5t5 -11.5v-301q21 42 66 67.5t104 25.5q95 0 148 -57t53 -151v-252q0 -7 -5 -11.5t-12 -4.5h-35q-7 0 -12 4.5t-5 11.5v242q0 73 -38 114.5t-109 41.5q-70 0 -112.5 -43.5t-42.5 -112.5v-242q0 -7 -5 -11.5t-11 -4.5h-36
q-7 0 -12 5t-5 12v388h-162v-388q0 -7 -5 -12t-12 -5h-35q-7 0 -12 5t-5 12v388h-161v-388q0 -7 -4.5 -12t-11.5 -5h-36q-7 0 -12 5t-5 12v388h-72q-7 0 -11.5 5t-4.5 12v25q0 7 4.5 12t11.5 5h72v106q0 66 36.5 98t87.5 32h22q19 0 19 -18v-29q0 -15 -15 -15h-11
q-70 -1 -70 -71v-103h161v106q0 66 36.5 98t87.5 32h23q18 0 18 -18v-29q0 -15 -14 -15h-12q-70 -1 -70 -71v-103z" />
    <glyph glyph-name="f_f_k" unicode="ffk" horiz-adv-x="956"
d="M169 17q0 -7 -4.5 -12t-11.5 -5h-36q-7 0 -12 5t-5 12v388h-72q-7 0 -11.5 5t-4.5 12v25q0 7 4.5 12t11.5 5h72v106q0 66 36.5 98t87.5 32h22q19 0 19 -18v-29q0 -15 -15 -15h-11q-70 -1 -70 -71v-103h161v106q0 66 36.5 98t87.5 32h23q18 0 18 -18v-29q0 -15 -14 -15
h-12q-69 -1 -69 -71v-103h161v219q0 7 5 12t12 5h36q7 0 11.5 -5t4.5 -12v-398h45l170 169q10 10 18 10h56q7 0 9 -5.5t-3 -10.5l-194 -187l224 -244q5 -5 2.5 -11t-9.5 -6h-51q-17 0 -27 13l-200 219h-40v-215q0 -7 -4.5 -12t-11.5 -5h-36q-7 0 -12 5t-5 12v388h-161v-388
q0 -7 -5 -12t-12 -5h-36q-7 0 -12 5t-5 12v388h-161v-388z" />
    <glyph glyph-name="f_f_t" unicode="fft" horiz-adv-x="815"
d="M630 140q0 -40 21.5 -62t54.5 -22q28 0 57 15q19 13 28 -2l14 -20q9 -14 -3 -23q-41 -33 -105 -33q-57 0 -96.5 34.5t-39.5 101.5v276h-161v-388q0 -7 -5 -12t-12 -5h-36q-7 0 -12 5t-5 12v388h-161v-388q0 -7 -4.5 -12t-11.5 -5h-36q-7 0 -12 5t-5 12v388h-72
q-7 0 -11.5 5t-4.5 12v25q0 7 4.5 12t11.5 5h72v106q0 66 36.5 98t87.5 32h22q19 0 19 -18v-29q0 -15 -15 -15h-11q-70 -1 -70 -71v-103h161v106q0 66 36.5 98t87.5 32h23q18 0 18 -18v-29q0 -15 -14 -15h-12q-69 -1 -69 -71v-103h161v151q0 7 5 12t12 5h36q7 0 11.5 -5
t4.5 -12v-151h149q7 0 12 -5t5 -12v-25q0 -7 -5 -12t-12 -5h-149v-265z" />
    <glyph glyph-name=".notdef" horiz-adv-x="0"
 />
    <glyph glyph-name=".null" horiz-adv-x="0"
 />
    <glyph glyph-name="nonmarkingreturn" horiz-adv-x="333"
 />
    <glyph glyph-name="space" unicode=" " horiz-adv-x="241"
 />
    <glyph glyph-name="exclam" unicode="!" horiz-adv-x="251"
d="M164 683l-5 -439q0 -7 -5 -12t-12 -5h-33q-7 0 -12 5t-5 12l-6 439q0 7 5 12t12 5h44q7 0 12 -5t5 -12zM124 -13q-27 0 -46 19.5t-19 46.5t19 46.5t46 19.5q28 0 47 -19.5t19 -46.5t-19 -46.5t-47 -19.5z" />
    <glyph glyph-name="quotedbl" unicode="&#x22;" horiz-adv-x="362"
d="M119 435h-38q-7 0 -12 4.5t-5 11.5v232q0 7 5 12t12 5h38q7 0 12 -5t5 -12v-232q0 -7 -5 -11.5t-12 -4.5zM281 435h-39q-16 0 -16 16v232q0 7 4.5 12t11.5 5h39q7 0 12 -5t5 -12v-232q0 -7 -5 -11.5t-12 -4.5z" />
    <glyph glyph-name="numbersign" unicode="#" horiz-adv-x="628"
d="M400 276v147h-172v-147h172zM228 17q0 -7 -5 -12t-12 -5h-22q-7 0 -12 5t-5 12v206h-116q-7 0 -12 5t-5 12v19q0 7 5 12t12 5h116v147h-116q-7 0 -12 5t-5 12v20q0 7 5 11.5t12 4.5h116v207q0 7 5 12t12 5h22q7 0 12 -5t5 -12v-207h172v207q0 7 5 12t12 5h22q7 0 12 -5
t5 -12v-207h116q7 0 12 -4.5t5 -11.5v-20q0 -7 -5 -12t-12 -5h-116v-147h116q7 0 12 -5t5 -12v-19q0 -7 -5 -12t-12 -5h-116v-206q0 -7 -5 -12t-12 -5h-22q-7 0 -12 5t-5 12v206h-172v-206z" />
    <glyph glyph-name="dollar" unicode="$" horiz-adv-x="606"
d="M247 410l31 -8v248q-63 -6 -104.5 -39.5t-41.5 -86.5q0 -40 25 -68.5t90 -45.5zM372 305l-32 9v-262q73 7 113 44.5t40 85.5t-29 77t-92 46zM316 -96h-14q-10 0 -17 7t-7 17v60q-86 5 -146.5 38.5t-91.5 77.5q-6 7 -5 15.5t8 13.5l25 19q17 10 30 -6q68 -84 180 -95v279
l-60 16q-160 42 -160 174q0 79 61.5 131.5t158.5 60.5v61q0 10 7 16.5t17 6.5h14q10 0 17 -6.5t7 -16.5v-61q131 -12 205 -94q14 -15 -1 -28l-21 -18q-14 -12 -29 1q-69 66 -154 76v-264l61 -17q167 -45 167 -181q0 -74 -59 -132t-169 -67v-60q0 -10 -7 -17t-17 -7z" />
    <glyph glyph-name="percent" unicode="%" horiz-adv-x="717"
d="M166 707q61 0 96.5 -50.5t35.5 -130.5q0 -82 -35.5 -132.5t-96.5 -50.5t-95.5 50.5t-34.5 132.5q0 81 34.5 131t95.5 50zM135 0h-15q-11 0 -14.5 8t3.5 19l449 657q10 16 27 16h15q11 0 14.5 -8t-3.5 -19l-449 -657q-10 -16 -27 -16zM89 525q0 -67 21.5 -101.5
t55.5 -34.5t56 34.5t22 101.5t-22 101.5t-56 34.5t-55.5 -34.5t-21.5 -101.5zM550 356q61 0 96.5 -50.5t35.5 -130.5q0 -82 -35.5 -132.5t-96.5 -50.5t-95.5 50t-34.5 133q0 81 34.5 131t95.5 50zM473 173q0 -67 21.5 -101.5t55.5 -34.5t56 34.5t22 101.5t-22 101.5
t-56 34.5t-55.5 -34.5t-21.5 -101.5z" />
    <glyph glyph-name="ampersand" unicode="&#x26;" horiz-adv-x="672"
d="M181 549q0 -62 72 -134l29 19q55 35 80 65.5t25 64.5q0 44 -29.5 68.5t-69.5 24.5q-42 0 -74.5 -29.5t-32.5 -78.5zM269 48q100 0 175 83l-208 209l-19 -13q-56 -39 -80.5 -74t-24.5 -76q0 -51 42.5 -90t114.5 -39zM567 8l-79 80q-96 -101 -227 -101q-100 0 -160.5 55.5
t-60.5 132.5q0 112 131 193l24 14q-81 81 -81 166q0 72 50 118.5t124 46.5q75 0 120 -42t45 -105q0 -95 -131 -176l-27 -17l189 -189q59 100 64 208q2 16 18 16h36q7 0 12 -5t5 -12q-3 -56 -27.5 -127t-60.5 -127l122 -121q3 -3 3 -7t-2.5 -6.5t-5.5 -2.5h-61q-12 0 -20 8z
" />
    <glyph glyph-name="quotesingle" unicode="'" horiz-adv-x="228"
d="M99 584q-42 18 -42 63q0 27 19.5 46.5t47.5 19.5t47.5 -20t19.5 -50q0 -65 -82 -155q-19 -19 -31 -12l-11 6q-15 8 -9 20z" />
    <glyph glyph-name="parenleft" unicode="(" horiz-adv-x="275"
d="M112 315q0 -103 39.5 -209.5t105.5 -197.5q8 -11 8 -17q0 -11 -13 -11h-25q-17 0 -28 14q-160 197 -160 421t160 421q11 14 28 14h25q13 0 13 -11q0 -6 -8 -17q-66 -91 -105.5 -197.5t-39.5 -209.5z" />
    <glyph glyph-name="parenright" unicode=")" horiz-adv-x="275"
d="M163 315q0 103 -39.5 209.5t-105.5 197.5q-8 11 -8 17q0 11 13 11h25q18 0 28 -14q160 -197 160 -421t-160 -421q-11 -14 -28 -14h-25q-13 0 -13 11q0 6 8 17q66 91 105.5 197.5t39.5 209.5z" />
    <glyph glyph-name="asterisk" unicode="*" horiz-adv-x="472"
d="M275 344q0 -16 -11 -27t-28 -11q-16 0 -27 11t-11 27q0 34 25 141q-8 -6 -35 -27t-50.5 -38t-31.5 -21q-14 -8 -29 -3.5t-23 18.5q-6 15 -1.5 30t17.5 23q9 4 37 12.5t61.5 18t41.5 11.5q-13 6 -71.5 23.5t-68.5 22.5q-13 7 -17.5 23t1.5 30q8 14 23 18.5t29 -3.5
q9 -5 56.5 -42t59.5 -45q-24 120 -24 140q0 16 11 27t27 11t27.5 -11t11.5 -27q0 -33 -25 -140q13 8 60.5 45t55.5 42q14 8 29.5 3.5t22.5 -18.5t2 -30t-18 -23q-10 -5 -68.5 -22.5t-71.5 -23.5q6 -2 41 -11.5t62.5 -18t36.5 -12.5q14 -8 18.5 -23t-2.5 -30
q-7 -14 -22.5 -18.5t-29.5 3.5q-10 5 -59.5 42.5t-57.5 43.5q6 -24 16 -76.5t10 -64.5z" />
    <glyph glyph-name="plus" unicode="+" horiz-adv-x="510"
d="M236 574h37q7 0 12 -4.5t5 -11.5v-169h167q7 0 12 -5t5 -12v-35q0 -7 -5 -12t-12 -5h-167v-169q0 -7 -5 -12t-12 -5h-37q-7 0 -12 5t-5 12v169h-166q-7 0 -12 5t-5 12v35q0 7 5 12t12 5h166v169q0 7 5 11.5t12 4.5z" />
    <glyph glyph-name="comma" unicode="," horiz-adv-x="239"
d="M99 -8q-45 16 -45 61q0 28 19 47t47 19q27 0 46 -20t19 -49q0 -62 -80 -153q-19 -19 -31 -12l-10 5q-13 9 -8 20z" />
    <glyph glyph-name="hyphen" unicode="-" horiz-adv-x="348"
d="M271 232h-194q-7 0 -12 5t-5 12v37q0 7 5 12t12 5h194q7 0 12 -5t5 -12v-37q0 -7 -5 -12t-12 -5z" />
    <glyph glyph-name="period" unicode="." horiz-adv-x="235"
d="M117 -13q-27 0 -46 19.5t-19 46.5t19 46.5t46 19.5q28 0 47 -19.5t19 -46.5t-19 -46.5t-47 -19.5z" />
    <glyph glyph-name="slash" unicode="/" horiz-adv-x="442"
d="M352 685q6 15 19 15h29q7 0 10.5 -5.5t0.5 -12.5l-320 -667q-5 -15 -19 -15h-31q-8 0 -11 6t0 12z" />
    <glyph glyph-name="zero" unicode="0" horiz-adv-x="598"
d="M299 713q117 0 184 -99.5t67 -262.5q0 -164 -67 -264t-184 -100t-184 100t-67 264q0 163 67 262.5t184 99.5zM299 46q77 0 128.5 78.5t51.5 225.5q0 148 -51 226t-129 78t-129 -78t-51 -226q0 -147 51.5 -225.5t128.5 -78.5z" />
    <glyph glyph-name="one" unicode="1" horiz-adv-x="293"
d="M15 573v27q0 15 16 15h14q88 0 108 69q6 16 21 16h18q16 0 16 -16v-667q0 -7 -5 -12t-12 -5h-33q-7 0 -12 5t-5 12v542h-110q-16 0 -16 14z" />
    <glyph glyph-name="two" unicode="2" horiz-adv-x="550"
d="M499 0h-438q-7 0 -12 5t-5 12v27q0 16 13 27l215 200q80 75 117 128.5t37 109.5q0 65 -44 104t-110 39q-68 0 -112 -42.5t-59 -103.5q-5 -20 -25 -15l-28 6q-15 3 -13 22q16 85 81 139.5t157 54.5q98 0 160.5 -56t62.5 -145q0 -63 -36 -124.5t-132 -149.5l-192 -175h363
q7 0 11.5 -5t4.5 -12v-29q0 -7 -4.5 -12t-11.5 -5z" />
    <glyph glyph-name="three" unicode="3" horiz-adv-x="579"
d="M264 397h24q66 0 107.5 39t41.5 94q0 53 -40 89t-109 36q-56 0 -96 -28t-60 -68q-8 -16 -23 -10l-26 11q-18 7 -11 23q25 56 81 93t139 37q94 0 152.5 -50t58.5 -129q0 -54 -32 -97t-86 -60q66 -12 108.5 -61.5t42.5 -117.5q0 -91 -69.5 -151t-181.5 -60
q-114 0 -184.5 61t-70.5 156v12q0 12 12 12h43q5 0 9 -3.5t4 -8.5v-10q0 -66 50 -113t137 -47q83 0 131 43t48 109q0 64 -44.5 103.5t-122.5 39.5h-33q-7 0 -12 5t-5 12v22q0 7 5 12t12 5z" />
    <glyph glyph-name="four" unicode="4" horiz-adv-x="560"
d="M365 210h-335q-7 0 -12 5t-5 12v28q0 17 9 29l316 402q9 14 26 14h52q7 0 12 -5t5 -12v-416h94q7 0 12 -5t5 -12v-23q0 -7 -5 -12t-12 -5h-94v-193q0 -7 -5 -12t-12 -5h-34q-7 0 -12 5t-5 12v193zM81 267h284v362z" />
    <glyph glyph-name="five" unicode="5" horiz-adv-x="562"
d="M272 -13q-84 0 -146 35.5t-90 92.5q-3 7 -0.5 14.5t8.5 10.5l27 14q16 9 26 -7q59 -99 176 -99q79 0 130 51t51 123q0 76 -49.5 122.5t-125.5 46.5q-80 0 -147 -54q-12 -11 -25 -8l-29 7q-15 4 -13 17l26 330q2 17 18 17h366q7 0 12 -5t5 -12v-31q0 -7 -5 -12t-12 -5
h-327l-20 -238q71 53 163 53q102 0 168.5 -62.5t66.5 -161.5q0 -101 -72 -170t-182 -69z" />
    <glyph glyph-name="six" unicode="6" horiz-adv-x="568"
d="M292 -13q-109 0 -180 71t-71 173q0 205 278 462q7 7 19 7h54q7 0 9 -6.5t-3 -11.5q-2 -2 -21.5 -21t-30 -29t-33 -33.5t-37.5 -39.5t-36 -40.5t-36.5 -44.5t-31 -43.5t-26.5 -44.5q68 66 166 66q95 0 163.5 -63.5t68.5 -165.5q0 -98 -72 -167t-180 -69zM293 397
q-78 0 -129 -52t-51 -123t51 -123t129 -52t129 52t51 123q0 72 -48.5 123.5t-131.5 51.5z" />
    <glyph glyph-name="seven" unicode="7" horiz-adv-x="500"
d="M484 662q0 -16 -7 -28l-298 -625q-5 -9 -15 -9h-50q-7 0 -10.5 6t-0.5 12l304 617h-377q-7 0 -12 5t-5 12v31q0 7 5 12t12 5h437q17 0 17 -15v-23z" />
    <glyph glyph-name="eight" unicode="8" horiz-adv-x="607"
d="M304 -13q-117 0 -189.5 57.5t-72.5 146.5q0 62 40 111.5t109 70.5q-52 19 -83 62t-31 96q0 80 64.5 131t162.5 51t162.5 -51t64.5 -131q0 -53 -31 -95.5t-84 -62.5q69 -21 109 -70.5t40 -111.5q0 -89 -72 -146.5t-189 -57.5zM304 399q71 0 115.5 38t44.5 92t-44.5 91.5
t-115.5 37.5t-115.5 -37.5t-44.5 -91.5t44.5 -92t115.5 -38zM304 341q-86 0 -138 -43t-52 -105t52 -105t138 -43t138 43t52 105t-52 105t-138 43z" />
    <glyph glyph-name="nine" unicode="9" horiz-adv-x="568"
d="M230 0h-54q-7 0 -9 6.5t3 11.5q2 2 22 21t30 29.5t33 33.5t37.5 39.5t36 41t37 44.5t31 43.5t26.5 44.5q-70 -67 -167 -67q-95 0 -163.5 63.5t-68.5 165.5q0 98 72 167t180 69q109 0 180 -71t71 -173q0 -205 -278 -462q-7 -7 -19 -7zM275 303q78 0 129 52t51 123t-51 123
t-129 52t-129 -52t-51 -123q0 -72 48.5 -123.5t131.5 -51.5z" />
    <glyph glyph-name="colon" unicode=":" horiz-adv-x="248"
d="M124 327q-27 0 -46 18.5t-19 45.5q0 28 19 46.5t46 18.5t46 -19t19 -46t-19 -45.5t-46 -18.5zM124 -13q-27 0 -46 19.5t-19 45.5q0 28 19 46.5t46 18.5t46 -19t19 -46q0 -26 -19.5 -45.5t-45.5 -19.5z" />
    <glyph glyph-name="semicolon" unicode=";" horiz-adv-x="252"
d="M125 327q-27 0 -46 18.5t-19 45.5t19 46t46 19t46.5 -19t19.5 -46t-19.5 -45.5t-46.5 -18.5zM105 -8q-45 16 -45 61q0 28 19 47t47 19q27 0 46.5 -20t19.5 -49q0 -61 -81 -153q-19 -19 -31 -12l-9 5q-14 9 -9 20z" />
    <glyph glyph-name="less" unicode="&#x3c;" horiz-adv-x="547"
d="M470 197v-41q0 -10 -7 -13.5t-14 0.5l-392 167q-21 9 -21 37q0 26 21 35l392 166q7 4 14 0.5t7 -13.5v-42q0 -13 -18 -20l-322 -127l322 -128q18 -7 18 -21z" />
    <glyph glyph-name="equal" unicode="=" horiz-adv-x="563"
d="M482 420h-401q-7 0 -12 5t-5 12v33q0 7 5 12t12 5h401q7 0 12 -5t5 -12v-33q0 -7 -5 -12t-12 -5zM482 212h-401q-7 0 -12 5t-5 12v33q0 7 5 12t12 5h401q7 0 12 -5t5 -12v-33q0 -7 -5 -12t-12 -5z" />
    <glyph glyph-name="greater" unicode="&#x3e;" horiz-adv-x="546"
d="M77 197q0 14 17 21l323 128l-323 127q-17 7 -17 20v42q0 10 6.5 13.5t13.5 -0.5l393 -166q21 -10 21 -35q0 -27 -21 -37l-393 -167q-7 -4 -13.5 -0.5t-6.5 13.5v41z" />
    <glyph glyph-name="question" unicode="?" horiz-adv-x="476"
d="M235 713q86 0 141 -49.5t55 -122.5q0 -41 -16.5 -78.5t-40.5 -65t-47.5 -53.5t-40 -56t-16.5 -61v-12q0 -6 -4.5 -10t-9.5 -4h-38q-6 0 -10.5 4.5t-4.5 10.5v16q0 37 16 71.5t38.5 61t45.5 52.5t39 57t16 63q0 50 -36.5 81.5t-88.5 31.5q-93 0 -141 -95q-3 -6 -11.5 -8
t-15.5 1l-25 11q-16 8 -7 28q26 56 80 91t122 35zM239 -13q-28 0 -47 19t-19 46t19 46t47 19q26 0 45.5 -19t19.5 -46t-19.5 -46t-45.5 -19z" />
    <glyph glyph-name="at" unicode="@" horiz-adv-x="916"
d="M475 -193q-186 0 -309.5 119.5t-123.5 299.5q0 182 122 300.5t307 118.5q171 0 283.5 -107t112.5 -276q0 -120 -47 -187t-116 -67q-46 0 -73 25t-34 62q-22 -39 -63 -63t-91 -24q-86 0 -144.5 60.5t-58.5 151.5t58.5 151.5t144.5 60.5q47 0 86.5 -22t62.5 -58v51
q0 7 5 12t12 5h28q7 0 12.5 -5t5.5 -12v-258q0 -39 12 -60t46 -21q39 0 67 53t28 149q0 142 -94.5 234t-248.5 92q-149 0 -255.5 -102.5t-106.5 -264.5q0 -157 110 -261t263 -104q76 0 141 24q33 11 61 29q12 8 23 5l42 -10q5 -1 6 -5.5t-2 -6.5q-103 -89 -272 -89zM448 375
q-62 0 -102 -43.5t-40 -109.5q0 -65 40 -109t102 -44q61 0 101 44.5t40 108.5q0 66 -40 109.5t-101 43.5z" />
    <glyph glyph-name="A" unicode="A" horiz-adv-x="644"
d="M178 263h284l-142 373zM84 16q-5 -16 -18 -16h-42q-8 0 -11.5 6t-0.5 13l259 665q6 16 21 16h60q15 0 21 -16l259 -665q4 -7 0 -13t-11 -6h-45q-14 0 -20 16l-71 186h-330z" />
    <glyph glyph-name="B" unicode="B" horiz-adv-x="670"
d="M384 700q101 0 155 -51.5t54 -120.5q0 -57 -29 -96.5t-75 -57.5q66 -17 104.5 -64.5t38.5 -112.5q0 -84 -59.5 -140.5t-168.5 -56.5h-301q-7 0 -12 5t-5 12v666q0 7 5 12t12 5h281zM518 519q0 57 -37.5 88.5t-100.5 31.5h-222v-241h222q62 0 100 31.5t38 89.5zM402 339
h-244v-278h245q63 0 109 36.5t46 102.5q0 65 -45.5 102t-110.5 37z" />
    <glyph glyph-name="C" unicode="C" horiz-adv-x="747"
d="M394 -13q-150 0 -252.5 103.5t-102.5 259.5q0 155 103 259t252 104q111 0 200.5 -59t127.5 -160q2 -6 -1 -11t-10 -6l-44 -7q-13 -1 -18 14q-34 77 -100 120.5t-155 43.5q-122 0 -201.5 -85.5t-79.5 -212.5t79.5 -212.5t201.5 -85.5q89 0 155 43.5t100 120.5q5 15 18 14
l44 -7q7 -1 10 -6t1 -11q-38 -101 -127.5 -160t-200.5 -59z" />
    <glyph glyph-name="D" unicode="D" horiz-adv-x="729"
d="M316 700q178 0 275.5 -95t97.5 -255t-97.5 -255t-275.5 -95h-213q-7 0 -12 5t-5 12v666q0 7 5 12t12 5h213zM326 66q130 0 209.5 75t79.5 209t-79.5 209t-209.5 75h-168v-568h168z" />
    <glyph glyph-name="E" unicode="E" horiz-adv-x="611"
d="M103 700h461q7 0 12 -5t5 -12v-32q0 -7 -5 -12t-12 -5h-406v-247h208q17 0 17 -17v-31q0 -7 -5 -12t-12 -5h-208v-256h408q7 0 12 -5t5 -12v-32q0 -7 -5 -12t-12 -5h-463q-7 0 -12 5t-5 12v666q0 7 5 12t12 5z" />
    <glyph glyph-name="F" unicode="F" horiz-adv-x="568"
d="M453 354v-31q0 -7 -5 -12t-12 -5h-278v-289q0 -7 -5 -12t-12 -5h-38q-7 0 -12 5t-5 12v666q0 7 5 12t12 5h433q7 0 12 -5t5 -12v-32q0 -7 -5 -12t-12 -5h-378v-263h278q17 0 17 -17z" />
    <glyph glyph-name="G" unicode="G" horiz-adv-x="775"
d="M397 713q113 0 203.5 -59t126.5 -160q2 -6 -0.5 -11t-9.5 -6l-43 -7q-13 -1 -18 14q-34 77 -101 120.5t-158 43.5q-122 0 -203 -86t-81 -213q0 -128 79.5 -212.5t202.5 -84.5q107 0 176.5 62t80.5 143h-233q-7 0 -12 5t-5 12v25q0 7 5 12t12 5h285q17 0 17 -17v-282
q0 -7 -5 -12t-12 -5h-32q-7 0 -12 5t-5 12v123q-25 -58 -94.5 -105.5t-173.5 -47.5q-148 0 -248 103.5t-100 259.5q0 155 104 259t254 104z" />
    <glyph glyph-name="H" unicode="H" horiz-adv-x="752"
d="M666 683v-666q0 -7 -5 -12t-12 -5h-37q-7 0 -12 5t-5 12v305h-437v-305q0 -7 -5 -12t-12 -5h-38q-7 0 -12 5t-5 12v666q0 7 5 12t12 5h38q7 0 12 -5t5 -12v-296h437v296q0 7 5 12t12 5h37q7 0 12 -5t5 -12z" />
    <glyph glyph-name="I" unicode="I" horiz-adv-x="244"
d="M141 0h-38q-7 0 -12 5t-5 12v666q0 7 5 12t12 5h38q7 0 12 -5t5 -12v-666q0 -7 -5 -12t-12 -5z" />
    <glyph glyph-name="J" unicode="J" horiz-adv-x="603"
d="M524 218q0 -101 -69 -166t-181 -65q-113 0 -181.5 64t-68.5 166v39q0 7 5 12t12 5h37q7 0 12 -5t5 -12v-38q0 -73 47 -120t132 -47t132 48.5t47 122.5v461q0 7 5 12t12 5h37q7 0 12 -5t5 -12v-465z" />
    <glyph glyph-name="K" unicode="K" horiz-adv-x="636"
d="M631 685l-306 -316l301 -354q4 -5 1.5 -10t-8.5 -5h-56q-16 0 -26 13l-270 320h-109v-316q0 -7 -5 -12t-12 -5h-38q-7 0 -12 5t-5 12v666q0 7 5 12t12 5h38q7 0 12 -5t5 -12v-287h108l276 290q12 14 25 14h58q7 0 8.5 -5t-2.5 -10z" />
    <glyph glyph-name="L" unicode="L" horiz-adv-x="541"
d="M532 49v-32q0 -7 -5 -12t-12 -5h-412q-7 0 -12 5t-5 12v666q0 7 5 12t12 5h38q7 0 12 -5t5 -12v-617h357q7 0 12 -5t5 -12z" />
    <glyph glyph-name="M" unicode="M" horiz-adv-x="881"
d="M454 111h-28q-18 0 -25 15l-244 493v-602q0 -7 -4.5 -12t-11.5 -5h-38q-7 0 -12 5t-5 12v666q0 7 5 12t12 5h77q16 0 24 -15l237 -482l237 482q8 15 25 15h75q7 0 12 -5t5 -12v-666q0 -7 -5 -12t-12 -5h-37q-7 0 -12 5t-5 12v602l-246 -493q-7 -15 -24 -15z" />
    <glyph glyph-name="N" unicode="N" horiz-adv-x="721"
d="M546 15l-388 572v-570q0 -7 -5 -12t-12 -5h-38q-7 0 -12 5t-5 12v666q0 7 5 12t12 5h49q15 0 26 -14l386 -570v567q0 7 4.5 12t11.5 5h38q7 0 12 -5t5 -12v-666q0 -7 -5 -12t-12 -5h-43q-19 0 -29 15z" />
    <glyph glyph-name="O" unicode="O" horiz-adv-x="787"
d="M748 350q0 -155 -103.5 -259t-251.5 -104t-251 104t-103 259t103 259t251 104t251.5 -104t103.5 -259zM674 350q0 128 -79.5 213t-201.5 85t-201 -85t-79 -213t79 -213t201 -85t201.5 85t79.5 213z" />
    <glyph glyph-name="P" unicode="P" horiz-adv-x="611"
d="M158 17q0 -7 -5 -12t-12 -5h-38q-7 0 -12 5t-5 12v666q0 7 5 12t12 5h243q118 0 180.5 -61.5t62.5 -154.5q-1 -94 -63.5 -157t-179.5 -63h-188v-247zM158 328h186q74 0 123 41t49 115q0 73 -49 112.5t-123 39.5h-186v-308z" />
    <glyph glyph-name="Q" unicode="Q" horiz-adv-x="787"
d="M393 52q108 0 184 68l-185 166q-12 11 -1 24l18 19q10 13 24 1l184 -166q57 81 57 186q0 128 -79.5 213t-201.5 85t-201 -85t-79 -213t79 -213t201 -85zM627 74q-98 -87 -234 -87q-148 0 -251 104t-103 259t103 259t251 104t251.5 -104t103.5 -259q0 -132 -79 -232
l86 -78q12 -11 1 -24l-19 -18q-11 -12 -24 -1z" />
    <glyph glyph-name="R" unicode="R" horiz-adv-x="673"
d="M389 359q74 0 117 38.5t43 101.5q0 62 -43 99.5t-117 37.5h-231v-277h231zM627 0h-46q-14 0 -24 16l-164 282h-235v-281q0 -7 -5 -12t-12 -5h-38q-7 0 -12 5t-5 12v666q0 7 5 12t12 5h284q109 0 172.5 -54.5t63.5 -143.5q0 -61 -37 -115.5t-121 -75.5l173 -294
q4 -5 0 -11t-11 -6z" />
    <glyph glyph-name="S" unicode="S" horiz-adv-x="599"
d="M301 713q152 0 239 -95q14 -15 -1 -28l-21 -18q-14 -12 -29 1q-81 78 -189 78q-72 0 -122.5 -34.5t-50.5 -92.5q0 -40 25 -68.5t90 -45.5l154 -42q167 -45 167 -181q0 -81 -68 -140.5t-195 -59.5q-96 0 -164 35t-101 82q-6 7 -5 15.5t8 13.5l25 19q17 10 30 -6
q77 -96 210 -96q88 0 136.5 39t48.5 93q0 48 -29 77t-92 46l-154 41q-160 42 -160 174q0 85 70.5 139t177.5 54z" />
    <glyph glyph-name="T" unicode="T" horiz-adv-x="613"
d="M12 651v32q0 7 5 12t12 5h555q7 0 12 -5t5 -12v-32q0 -7 -5 -12t-12 -5h-242v-617q0 -7 -5 -12t-12 -5h-39q-7 0 -12 5t-5 12v617h-240q-7 0 -12 5t-5 12z" />
    <glyph glyph-name="U" unicode="U" horiz-adv-x="701"
d="M622 239q0 -118 -75.5 -185t-195.5 -67t-196 66.5t-76 184.5v445q0 7 5 12t12 5h37q7 0 12 -5t5 -12v-445q0 -87 56.5 -137t144.5 -50q87 0 144 50t57 137v445q0 7 5 12t12 5h36q7 0 12 -5t5 -12v-444z" />
    <glyph glyph-name="V" unicode="V" horiz-adv-x="649"
d="M354 0h-59q-17 0 -23 16l-260 665q-4 7 0 13t11 6h48q12 0 19 -15l235 -612h4l233 612q7 15 19 15h44q8 0 11.5 -5.5t0.5 -13.5l-260 -665q-6 -16 -23 -16z" />
    <glyph glyph-name="W" unicode="W" horiz-adv-x="1009"
d="M792 16q-5 -16 -22 -16h-57q-17 0 -22 16l-186 581l-185 -581q-5 -16 -22 -16h-59q-17 0 -22 16l-201 665q-2 8 2 13.5t12 5.5h44q13 0 18 -16l178 -603l192 603q5 16 20 16h47q15 0 20 -16l192 -599l177 599q5 16 18 16h43q19 0 14 -19z" />
    <glyph glyph-name="X" unicode="X" horiz-adv-x="605"
d="M93 14q-9 -14 -25 -14h-49q-7 0 -10 6t2 11l245 339l-236 327q-4 5 -0.5 11t10.5 6h49q16 0 25 -13l202 -279l200 279q9 13 25 13h46q7 0 10 -6t-1 -11l-236 -327l244 -339q4 -5 1.5 -11t-9.5 -6h-52q-14 0 -25 14l-209 287z" />
    <glyph glyph-name="Y" unicode="Y" horiz-adv-x="618"
d="M273 17v282l-255 383q-4 6 -1 12t9 6h54q12 0 22 -13l206 -313h4l206 313q10 13 21 13h54q6 0 9 -5.5t-1 -12.5l-256 -383v-282q0 -7 -5 -12t-12 -5h-38q-7 0 -12 5t-5 12z" />
    <glyph glyph-name="Z" unicode="Z" horiz-adv-x="593"
d="M558 0h-526q-7 0 -12 5t-5 12v25q0 14 14 28l432 565h-400q-7 0 -12 5t-5 12v31q0 7 5 12t12 5h476q16 0 16 -17v-27q0 -16 -14 -32l-426 -559h445q7 0 11.5 -5t4.5 -12v-31q0 -7 -4.5 -12t-11.5 -5z" />
    <glyph glyph-name="bracketleft" unicode="[" horiz-adv-x="307"
d="M293 733v-25q0 -16 -16 -16h-126v-737h126q7 0 11.5 -5t4.5 -12v-25q0 -16 -16 -16h-177q-7 0 -12 4.5t-5 11.5v820q0 7 5 12t12 5h177q7 0 11.5 -5t4.5 -12z" />
    <glyph glyph-name="backslash" unicode="\" horiz-adv-x="443"
d="M91 685l322 -667q3 -6 -0.5 -12t-10.5 -6h-28q-16 0 -23 15l-320 667q-3 7 0.5 12.5t11.5 5.5h26q16 0 22 -15z" />
    <glyph glyph-name="bracketright" unicode="]" horiz-adv-x="307"
d="M14 733q0 7 4.5 12t11.5 5h177q7 0 12 -5t5 -12v-820q0 -7 -5 -11.5t-12 -4.5h-177q-16 0 -16 16v25q0 7 4.5 12t11.5 5h126v737h-126q-16 0 -16 16v25z" />
    <glyph glyph-name="asciicircum" unicode="^" horiz-adv-x="469"
d="M91 221h-40q-8 0 -12 5.5t-1 13.5l150 444q5 16 21 16h56q17 0 22 -16l144 -444q2 -8 -2 -13.5t-12 -5.5h-41q-17 0 -22 16l-117 390l-124 -390q-4 -16 -22 -16z" />
    <glyph glyph-name="underscore" unicode="_" horiz-adv-x="272"
d="M250 -147h-228q-7 0 -12 5t-5 12v31q0 7 5 12t12 5h228q7 0 12 -5t5 -12v-31q0 -7 -5 -12t-12 -5z" />
    <glyph glyph-name="grave" unicode="`" horiz-adv-x="205"
d="M52 692h49q17 0 22 -15l52 -134q5 -17 -13 -17h-27q-11 0 -19 14l-76 134q-3 6 0.5 12t11.5 6z" />
    <glyph glyph-name="a" unicode="a"
d="M106 232q0 -77 48 -129t121 -52t121 52.5t48 128.5q0 77 -48 129t-121 52q-74 0 -121.5 -52t-47.5 -129zM35 232q0 106 68 175.5t166 69.5q58 0 105 -28t69 -73v71q0 7 5 12t12 5h36q7 0 11.5 -5t4.5 -12v-430q0 -7 -4.5 -12t-11.5 -5h-36q-7 0 -12 5t-5 12v71
q-23 -45 -69.5 -73t-104.5 -28q-98 0 -166 69.5t-68 175.5z" />
    <glyph glyph-name="b" unicode="b" horiz-adv-x="579"
d="M136 377q23 45 70 72t106 27q97 0 164.5 -69.5t67.5 -175.5t-67.5 -175t-165.5 -69q-57 0 -104 27.5t-71 71.5v-69q0 -7 -5 -12t-12 -5h-35q-7 0 -12 5t-5 12v666q0 7 5 12t12 5h36q7 0 11.5 -5t4.5 -12v-306zM135 231q0 -76 48 -128t122 -52q73 0 121 52t48 128
q0 77 -48 129.5t-121 52.5q-74 0 -122 -52.5t-48 -129.5z" />
    <glyph glyph-name="c" unicode="c" horiz-adv-x="514"
d="M481 106q-27 -55 -82.5 -87t-123.5 -32q-101 0 -170.5 70t-69.5 175t69.5 175t170.5 70q68 0 123.5 -32t82.5 -87q9 -17 -7 -25l-26 -13q-16 -9 -26 7q-50 86 -147 86q-73 0 -121 -52t-48 -129t48 -129t121 -52q97 0 147 86q10 16 26 7l26 -13q16 -8 7 -25z" />
    <glyph glyph-name="d" unicode="d" horiz-adv-x="579"
d="M106 231q0 -77 47.5 -128.5t121.5 -51.5t121.5 51.5t47.5 128.5t-47.5 129.5t-121.5 52.5t-121.5 -52.5t-47.5 -129.5zM35 231q0 106 68 175.5t165 69.5q59 0 106 -27.5t69 -72.5v307q0 7 5 12t12 5h36q7 0 11.5 -5t4.5 -12v-666q0 -7 -4.5 -12t-11.5 -5h-36q-7 0 -12 5
t-5 12v71q-23 -45 -69.5 -73t-104.5 -28q-98 0 -166 69t-68 175z" />
    <glyph glyph-name="e" unicode="e" horiz-adv-x="533"
d="M273 477q100 0 166.5 -65.5t66.5 -168.5v-13q0 -17 -16 -17h-384q5 -71 53 -118t119 -47q81 0 141 68q11 13 24 4l29 -18q12 -8 4 -21q-30 -44 -82 -69t-118 -25q-105 0 -173 69.5t-68 174.5q0 104 67.5 175t170.5 71zM438 264q-7 71 -52.5 112.5t-112.5 41.5
q-66 0 -111.5 -43.5t-53.5 -110.5h330z" />
    <glyph glyph-name="f" unicode="f" horiz-adv-x="298"
d="M28 464h72v107q0 70 41.5 107t99.5 37q61 0 102 -32q12 -10 2 -23l-17 -22q-9 -12 -28 -1q-27 16 -56 16q-33 0 -54 -23t-21 -61v-105h103q7 0 12 -5t5 -12v-25q0 -7 -5 -12t-12 -5h-103v-388q0 -7 -4.5 -12t-11.5 -5h-36q-7 0 -12 5t-5 12v388h-72q-7 0 -11.5 5t-4.5 12
v25q0 7 4.5 12t11.5 5z" />
    <glyph glyph-name="g" unicode="g"
d="M105 233q0 -77 48 -129t121 -52q74 0 121.5 52t47.5 129t-47.5 128.5t-121.5 51.5q-73 0 -121 -52t-48 -128zM275 -161q82 0 125 43t43 115v92q-22 -44 -69 -71.5t-105 -27.5q-99 0 -166.5 68.5t-67.5 174.5t67.5 174.5t165.5 68.5q59 0 106 -28t69 -73v72q0 7 5 12t12 5
h36q7 0 11.5 -5t4.5 -12v-451q0 -96 -63 -156t-176 -60q-91 0 -149.5 41t-74.5 107q-4 15 11 17l36 10q17 3 20 -11q11 -45 51.5 -75t107.5 -30z" />
    <glyph glyph-name="h" unicode="h" horiz-adv-x="567"
d="M438 16v242q0 73 -38 114.5t-109 41.5q-70 0 -112.5 -43.5t-42.5 -112.5v-242q0 -7 -5 -11.5t-11 -4.5h-36q-7 0 -12 5t-5 12v666q0 7 5 12t12 5h36q6 0 11 -4.5t5 -11.5v-301q21 42 66.5 67.5t104.5 25.5q92 0 146 -55.5t54 -146.5v-258q0 -7 -5 -11.5t-12 -4.5h-35
q-7 0 -12 4.5t-5 11.5z" />
    <glyph glyph-name="i" unicode="i" horiz-adv-x="201"
d="M101 568q-23 0 -39.5 17t-16.5 40t16.5 40t39.5 17t39.5 -17t16.5 -40t-16.5 -40t-39.5 -17zM119 0h-36q-7 0 -12 5t-5 12v430q0 7 5 12t12 5h36q7 0 11.5 -5t4.5 -12v-430q0 -7 -4.5 -12t-11.5 -5z" />
    <glyph glyph-name="j" unicode="j" horiz-adv-x="201"
d="M97 569q-23 0 -40 16.5t-17 39.5t17 40t40 17t39.5 -17t16.5 -40t-16.5 -39.5t-39.5 -16.5zM82 464h35q7 0 12 -5t5 -12v-520q0 -72 -41 -109.5t-99 -37.5q-64 0 -101 32q-13 9 -2 22l14 20q11 15 26 5q29 -18 58 -18q33 0 54.5 22.5t21.5 62.5v521q0 7 5 12t12 5z" />
    <glyph glyph-name="k" unicode="k" horiz-adv-x="462"
d="M136 17q0 -7 -4.5 -12t-11.5 -5h-36q-7 0 -12 5t-5 12v666q0 7 5 12t12 5h36q7 0 11.5 -5t4.5 -12v-394h61l154 165q9 10 18 10h56q7 0 9 -5.5t-3 -10.5l-181 -188l211 -243q5 -5 2.5 -11t-9.5 -6h-51q-17 0 -27 13l-186 217h-54v-213z" />
    <glyph glyph-name="l" unicode="l" horiz-adv-x="236"
d="M177 0q-52 0 -82 27.5t-30 84.5v571q0 7 5 12t12 5h36q7 0 11.5 -5t4.5 -12v-563q0 -61 60 -61h23q7 0 12 -5t5 -12v-24q0 -18 -19 -18h-38z" />
    <glyph glyph-name="m" unicode="m" horiz-adv-x="893"
d="M135 262v-246q0 -7 -5 -11.5t-11 -4.5h-36q-7 0 -12 5t-5 12v430q0 7 5 12t12 5h36q6 0 11 -5t5 -12v-63q21 41 64.5 66.5t98.5 25.5q59 0 102.5 -28.5t62.5 -77.5q53 106 178 106q91 0 141.5 -55.5t50.5 -144.5v-260q0 -7 -5 -11.5t-12 -4.5h-35q-7 0 -12 4.5t-5 11.5
v246q0 69 -35 110.5t-101 41.5t-105 -42.5t-39 -109.5v-246q0 -7 -5 -11.5t-12 -4.5h-35q-7 0 -12 4.5t-5 11.5v246q0 68 -35 110t-100 42q-67 0 -106 -42.5t-39 -109.5z" />
    <glyph glyph-name="n" unicode="n" horiz-adv-x="566"
d="M437 16v242q0 73 -38 114.5t-109 41.5q-70 0 -112.5 -43.5t-42.5 -112.5v-242q0 -7 -5 -11.5t-11 -4.5h-36q-7 0 -12 5t-5 12v430q0 7 5 12t12 5h36q6 0 11 -5t5 -12v-64q21 42 66.5 67.5t104.5 25.5q92 0 146 -55.5t54 -146.5v-258q0 -7 -5 -11.5t-12 -4.5h-35
q-7 0 -12 4.5t-5 11.5z" />
    <glyph glyph-name="o" unicode="o" horiz-adv-x="549"
d="M35 232q0 104 69.5 174t170.5 70q100 0 169.5 -70t69.5 -174q0 -105 -69.5 -175t-169.5 -70q-101 0 -170.5 70t-69.5 175zM105 232q0 -77 48 -129t122 -52q73 0 121 52t48 129t-47.5 129t-121.5 52t-122 -52t-48 -129z" />
    <glyph glyph-name="p" unicode="p"
d="M134 232q0 -77 48 -129t122 -52q73 0 120.5 52t47.5 129t-47.5 129t-120.5 52q-74 0 -122 -52t-48 -129zM135 376q22 45 69.5 72.5t106.5 27.5q97 0 164.5 -69t67.5 -175q0 -107 -67.5 -176t-165.5 -69q-57 0 -104.5 27.5t-70.5 71.5v-275q0 -7 -5 -12t-12 -5h-35
q-7 0 -12 5t-5 12v636q0 7 5 12t12 5h35q7 0 12 -5t5 -12v-71z" />
    <glyph glyph-name="q" unicode="q"
d="M35 232q0 106 68 175t165 69q59 0 106 -27.5t69 -72.5v71q0 7 5 12t12 5h36q7 0 11.5 -5t4.5 -12v-636q0 -7 -4.5 -12t-11.5 -5h-36q-7 0 -12 5t-5 12v277q-23 -45 -69.5 -73t-104.5 -28q-98 0 -166 69.5t-68 175.5zM106 232q0 -77 47.5 -129t121.5 -52q73 0 121 52
t48 129q0 76 -48 128.5t-121 52.5t-121 -52t-48 -129z" />
    <glyph glyph-name="r" unicode="r" horiz-adv-x="303"
d="M262 465h16q16 0 16 -17v-36q0 -16 -15 -16h-17q-58 0 -92.5 -38t-34.5 -121v-221q0 -7 -5 -11.5t-11 -4.5h-36q-7 0 -12 5t-5 12v430q0 7 5 12t12 5h33q6 0 11 -5t5 -12v-69q14 36 48.5 61.5t81.5 25.5z" />
    <glyph glyph-name="s" unicode="s" horiz-adv-x="446"
d="M223 477q107 0 169 -58q15 -13 1 -26l-17 -17q-14 -12 -29 0q-58 44 -129 44q-49 0 -77.5 -21.5t-28.5 -53.5q0 -51 78 -67l87 -17q71 -14 105 -45.5t34 -86.5q0 -56 -49.5 -99t-140.5 -43q-113 0 -183 66q-22 21 -4 37l17 15q12 11 28 -3q63 -58 145 -58q54 0 85 24
t31 56q0 61 -95 79l-81 15q-128 23 -128 124q0 60 52 97.5t130 37.5z" />
    <glyph glyph-name="t" unicode="t" horiz-adv-x="350"
d="M97 129v276h-72q-7 0 -11.5 5t-4.5 12v25q0 7 4.5 12t11.5 5h72v151q0 7 5 12t12 5h36q7 0 11.5 -5t4.5 -12v-151h149q7 0 11.5 -5t4.5 -12v-25q0 -7 -4.5 -12t-11.5 -5h-149v-265q0 -40 21.5 -62t54.5 -22q29 0 56 15q19 13 29 -2l13 -20q10 -14 -3 -23
q-41 -33 -105 -33q-56 0 -95.5 34.5t-39.5 101.5z" />
    <glyph glyph-name="u" unicode="u" horiz-adv-x="560"
d="M129 447v-247q0 -72 37.5 -112.5t107.5 -40.5q69 0 110 42.5t41 110.5v247q0 7 5 12t12 5h35q7 0 12 -5t5 -12v-430q0 -7 -5 -12t-12 -5h-35q-7 0 -12 4.5t-5 11.5v65q-21 -43 -65 -68.5t-103 -25.5q-91 0 -144 55t-53 146v259q0 7 5 12t11 5h36q7 0 12 -5t5 -12z" />
    <glyph glyph-name="v" unicode="v" horiz-adv-x="476"
d="M265 0h-54q-17 0 -22 16l-169 429q-2 7 1.5 13t10.5 6h44q14 0 19 -14l144 -382l142 382q5 14 19 14h42q8 0 12 -6t1 -13l-167 -429q-7 -16 -23 -16z" />
    <glyph glyph-name="w" unicode="w" horiz-adv-x="745"
d="M260 16q-5 -16 -22 -16h-52q-17 0 -22 16l-145 429q-3 8 1 13.5t12 5.5h43q15 0 20 -14l118 -374l117 372q5 16 19 16h50q14 0 19 -16l117 -372l118 373q5 15 20 15h41q7 0 11 -5.5t1 -13.5l-144 -429q-5 -16 -22 -16h-53q-17 0 -22 16l-112 362z" />
    <glyph glyph-name="x" unicode="x" horiz-adv-x="464"
d="M97 13q-9 -13 -22 -13h-50q-7 0 -9.5 5.5t1.5 10.5l171 221l-164 211q-4 4 -1 10t9 6h56q11 0 22 -14l129 -165l122 165q9 14 22 14h46q7 0 10 -6t-2 -10l-159 -213l171 -219q4 -5 1.5 -10.5t-9.5 -5.5h-56q-12 0 -23 13l-136 174z" />
    <glyph glyph-name="y" unicode="y" horiz-adv-x="471"
d="M106 -220q-70 0 -110 43q-11 11 1 25l16 18q11 13 28 0q31 -26 65 -26q53 0 79 69l34 91h-19q-15 0 -19 13l-158 432q-2 7 1.5 13t11.5 6h46q13 0 19 -16l139 -391l135 391q6 16 20 16h44q8 0 11.5 -6t0.5 -13l-202 -557q-38 -108 -143 -108z" />
    <glyph glyph-name="z" unicode="z" horiz-adv-x="442"
d="M396 402l-282 -342h286q7 0 11.5 -5t4.5 -12v-26q0 -7 -4.5 -12t-11.5 -5h-359q-7 0 -12 5t-5 12v24q0 11 9 22l282 341h-258q-7 0 -12 5t-5 12v26q0 7 5 12t12 5h331q7 0 12 -5t5 -12v-24q0 -11 -9 -21z" />
    <glyph glyph-name="braceleft" unicode="{" horiz-adv-x="317"
d="M171 5q0 -27 10.5 -38.5t33.5 -11.5h71q7 0 11.5 -5t4.5 -12v-25q0 -16 -16 -16h-91q-43 0 -69.5 24.5t-26.5 75.5v286q0 30 -29 30h-31q-6 0 -11.5 5t-5.5 13v20q0 18 17 18h31q29 0 29 31v249q0 51 26.5 76t69.5 25h91q7 0 11.5 -5t4.5 -12v-25q0 -16 -16 -16h-71
q-23 0 -33.5 -12t-10.5 -39v-227q0 -31 -16.5 -50t-35.5 -23q19 -4 35.5 -23t16.5 -50v-263z" />
    <glyph glyph-name="bar" unicode="|" horiz-adv-x="222"
d="M122 -125h-22q-7 0 -12 5t-5 12v916q0 7 5 12t12 5h22q7 0 12 -5t5 -12v-916q0 -7 -5 -12t-12 -5z" />
    <glyph glyph-name="braceright" unicode="}" horiz-adv-x="317"
d="M146 5v263q0 31 16.5 50t35.5 23q-19 4 -35.5 23t-16.5 50v227q0 27 -10.5 39t-33.5 12h-71q-16 0 -16 16v25q0 7 4.5 12t11.5 5h91q43 0 69.5 -25t26.5 -76v-249q0 -31 29 -31h31q17 0 17 -18v-20q0 -8 -5.5 -13t-11.5 -5h-31q-29 0 -29 -30v-286q0 -51 -26.5 -75.5
t-69.5 -24.5h-91q-16 0 -16 16v25q0 7 4.5 12t11.5 5h71q23 0 33.5 11.5t10.5 38.5z" />
    <glyph glyph-name="asciitilde" unicode="~" horiz-adv-x="569"
d="M423 299q-20 -1 -134 16.5t-135 17.5q-9 0 -17 -4t-11 -7t-13 -15q-10 -10 -22 -3l-14 15q-12 7 -9 21q7 22 29.5 40t51.5 18q21 0 134 -17t136 -17q4 0 7 0.5t5.5 1t5.5 2.5l4.5 3t5 4t4.5 4t5 5.5t5 5.5q9 10 21 3l13 -15q14 -9 9 -21q-7 -22 -29.5 -39.5t-51.5 -18.5z
" />
    <glyph glyph-name="uni00A0" unicode="&#xa0;" horiz-adv-x="239"
 />
    <glyph glyph-name="exclamdown" unicode="&#xa1;" horiz-adv-x="231"
d="M115 474q28 0 47 -19.5t19 -46.5t-19 -46.5t-47 -19.5q-27 0 -46 19.5t-19 46.5t19 46.5t46 19.5zM155 -222q0 -7 -5 -12t-12 -5h-44q-7 0 -12 5t-5 12l6 439q0 7 5 12t12 5h33q7 0 12 -5t5 -12z" />
    <glyph glyph-name="cent" unicode="&#xa2;" horiz-adv-x="530"
d="M305 -72q0 -10 -7 -17t-17 -7h-14q-10 0 -17 7t-7 17v62q-87 14 -143.5 81t-56.5 161t56.5 161t143.5 81v66q0 10 7 16.5t17 6.5h14q10 0 17 -6.5t7 -16.5v-64q62 -5 110.5 -36.5t73.5 -81.5q9 -17 -7 -25l-26 -13q-16 -9 -26 7q-43 76 -125 85v-360q82 9 125 85
q10 16 26 7l26 -13q16 -8 7 -25q-25 -50 -73.5 -81.5t-110.5 -36.5v-60zM114 232q0 -65 35.5 -114t93.5 -62v352q-58 -13 -93.5 -62t-35.5 -114z" />
    <glyph glyph-name="sterling" unicode="&#xa3;" horiz-adv-x="581"
d="M538 17q0 -7 -5 -12t-12 -5h-465q-7 0 -12 5t-5 12v33q0 7 5 12t12 5h72v219h-72q-7 0 -12 5t-5 12v28q0 7 5 12t12 5h72v147q0 99 60.5 158.5t152.5 59.5q67 0 118.5 -29.5t78.5 -84.5q7 -16 -8 -23l-26 -13q-18 -10 -26 7q-44 80 -137 80q-66 0 -103 -45t-37 -114v-143
h172q7 0 12 -5t5 -12v-28q0 -7 -5 -12t-12 -5h-172v-219h320q7 0 12 -5t5 -12v-33z" />
    <glyph glyph-name="currency" unicode="&#xa4;" horiz-adv-x="710"
d="M355 581q-79 0 -139 -47l139 -147l139 147q-62 47 -139 47zM128 349q0 -84 50 -145l138 145l-138 145q-50 -61 -50 -145zM581 349q0 85 -49 145l-139 -145l139 -145q49 60 49 145zM355 117q77 0 139 47l-139 147l-139 -147q60 -47 139 -47zM644 349q0 -110 -68 -189
l65 -69q6 -6 6.5 -13t-5.5 -12l-17 -14q-12 -11 -23 0l-67 70q-74 -61 -180 -61t-181 61l-66 -70q-12 -12 -24 0l-16 14q-12 12 1 25l65 69q-68 79 -68 189t68 189l-65 69q-13 13 -1 25l16 14q12 12 24 0l66 -70q75 61 181 61t180 -61l67 70q11 11 23 0l17 -14q6 -5 5.5 -12
t-6.5 -13l-65 -69q68 -79 68 -189z" />
    <glyph glyph-name="yen" unicode="&#xa5;" horiz-adv-x="651"
d="M361 17q0 -7 -5 -12t-12 -5h-38q-7 0 -11.5 5t-4.5 12v209h-178q-7 0 -12 5t-5 12v24q0 7 5 12t12 5h178v15l-57 86h-121q-7 0 -12 5t-5 12v23q0 7 5 12t12 5h82l-160 240q-4 6 -1 12t10 6h53q12 0 22 -13l207 -313h3l207 313q8 13 20 13h54q6 0 9 -5.5t-1 -12.5
l-160 -240h81q7 0 12 -5t5 -12v-23q0 -7 -5 -12t-12 -5h-120l-57 -86v-15h177q7 0 12 -5t5 -12v-24q0 -7 -5 -12t-12 -5h-177v-209z" />
    <glyph glyph-name="brokenbar" unicode="&#xa6;" horiz-adv-x="227"
d="M142 808v-376q0 -7 -4.5 -12t-11.5 -5h-24q-7 0 -12 5t-5 12v376q0 7 5 12t12 5h24q7 0 11.5 -5t4.5 -12zM142 269v-377q0 -7 -4.5 -12t-11.5 -5h-24q-7 0 -12 5t-5 12v377q0 7 5 11.5t12 4.5h24q16 0 16 -16z" />
    <glyph glyph-name="section" unicode="&#xa7;" horiz-adv-x="693"
d="M396 150q77 -34 114 -76q79 36 79 104q0 49 -36.5 79.5t-130.5 71.5l-125 55q-77 34 -114 76q-79 -36 -79 -104q0 -49 36.5 -79.5t130.5 -71.5zM323 -233q-68 0 -127.5 25.5t-98.5 70.5q-13 18 2 29l22 17q16 12 29 -3q68 -76 172 -76q68 0 112 35t44 86q0 47 -28.5 79.5
t-95.5 62.5l-180 80q-142 63 -142 177q0 52 32.5 96t88.5 65q-12 30 -12 69q1 77 64.5 132t164.5 55q68 0 127.5 -25.5t98.5 -70.5q13 -18 -2 -29l-22 -17q-16 -12 -29 3q-68 76 -172 76q-68 0 -112 -35t-44 -86q0 -47 28.5 -79.5t95.5 -62.5l180 -80q142 -63 142 -177
q0 -52 -32.5 -96t-88.5 -65q12 -30 12 -69q-1 -77 -64.5 -132t-164.5 -55z" />
    <glyph glyph-name="dieresis" unicode="&#xa8;" horiz-adv-x="318"
d="M20 578q0 22 16.5 38.5t38.5 16.5t38 -16.5t16 -38.5t-16 -38t-38 -16t-38.5 16t-16.5 38zM188 578q0 22 16 38.5t38 16.5t38.5 -16.5t16.5 -38.5t-16.5 -38t-38.5 -16t-38 16t-16 38z" />
    <glyph glyph-name="copyright" unicode="&#xa9;" horiz-adv-x="841"
d="M44 350q0 160 109.5 266.5t267.5 106.5t267 -106.5t109 -266.5q0 -159 -109.5 -265.5t-266.5 -106.5q-158 0 -267.5 106.5t-109.5 265.5zM744 350q0 139 -93.5 231.5t-229.5 92.5t-230 -92.5t-94 -231.5q0 -138 94 -230.5t230 -92.5q135 0 229 92.5t94 230.5zM425 505
q-65 0 -105.5 -44t-40.5 -111t40.5 -111t105.5 -44q81 0 126 75q9 17 28 8l23 -11q15 -7 10 -21q-21 -50 -72 -82t-115 -32q-93 0 -154.5 62t-61.5 156t61.5 156t154.5 62q64 0 115 -32t72 -82q5 -14 -10 -21l-23 -11q-19 -9 -28 8q-45 75 -126 75z" />
    <glyph glyph-name="ordfeminine" unicode="&#xaa;" horiz-adv-x="465"
d="M225 663q-50 0 -82 -35t-32 -87t32 -87.5t82 -35.5q49 0 81.5 35.5t32.5 87.5t-32.5 87t-81.5 35zM339 390v35q-40 -59 -119 -59q-70 0 -118.5 49t-48.5 126q0 76 49 125.5t119 49.5q78 0 118 -59v34q0 6 4.5 11t11.5 5h25q6 0 10.5 -4.5t4.5 -11.5v-301q0 -6 -4.5 -11
t-10.5 -5h-25q-16 0 -16 16zM379 264h-285q-6 0 -10.5 4.5t-4.5 10.5v23q0 7 4.5 11.5t10.5 4.5h285q16 0 16 -16v-23q0 -6 -4.5 -10.5t-11.5 -4.5z" />
    <glyph glyph-name="guillemotleft" unicode="&#xab;" horiz-adv-x="443"
d="M210 30h-39q-17 0 -25 14l-95 183q-8 13 0 28l95 183q7 14 25 14h39q7 0 10.5 -5t-0.5 -12l-95 -194l95 -194q3 -6 0 -11.5t-10 -5.5zM380 30h-40q-17 0 -24 14l-96 183q-7 13 0 28l96 183q7 14 24 14h40q6 0 9 -5t0 -12l-95 -194l95 -194q3 -6 0 -11.5t-9 -5.5z" />
    <glyph glyph-name="logicalnot" unicode="&#xac;" horiz-adv-x="548"
d="M480 455v-211q0 -7 -5 -12t-12 -5h-36q-7 0 -12 5t-5 12v160h-351q-7 0 -12 5t-5 12v34q0 7 5 12t12 5h404q7 0 12 -5t5 -12z" />
    <glyph glyph-name="registered" unicode="&#xae;" horiz-adv-x="837"
d="M44 350q0 160 109 266.5t266 106.5t265.5 -106.5t108.5 -266.5q0 -159 -108.5 -265.5t-265.5 -106.5t-266 106.5t-109 265.5zM740 350q0 140 -93 233.5t-228 93.5q-136 0 -229.5 -93.5t-93.5 -233.5t93.5 -233t229.5 -93q135 0 228 93t93 233zM549 431q0 42 -28.5 66.5
t-73.5 24.5h-109v-184h109q44 0 73 25.5t29 67.5zM324 122h-32q-5 0 -9.5 4.5t-4.5 9.5v424q0 5 4.5 9.5t9.5 4.5h153q78 0 122 -42t44 -102q0 -47 -27.5 -83.5t-77.5 -51.5l93 -159q2 -4 -0.5 -9t-7.5 -5h-38q-14 0 -21 13l-87 151h-107v-150q0 -5 -4.5 -9.5t-9.5 -4.5z
" />
    <glyph glyph-name="macron" unicode="&#xaf;" horiz-adv-x="535"
d="M382 548h-229q-7 0 -12 5t-5 12v24q0 7 5 12t12 5h229q7 0 12 -5t5 -12v-24q0 -7 -5 -12t-12 -5z" />
    <glyph glyph-name="degree" unicode="&#xb0;" horiz-adv-x="372"
d="M186 423q-61 0 -103.5 42t-42.5 103q0 60 42.5 102.5t103.5 42.5t103.5 -42.5t42.5 -102.5q0 -61 -42.5 -103t-103.5 -42zM186 664q-38 0 -65 -28t-27 -68t27 -68.5t65 -28.5t65.5 28.5t27.5 68.5t-27.5 68t-65.5 28z" />
    <glyph glyph-name="plusminus" unicode="&#xb1;" horiz-adv-x="550"
d="M256 590h37q7 0 12 -5t5 -12v-168h167q7 0 12 -5t5 -12v-35q0 -7 -5 -12t-12 -5h-167v-169q0 -7 -5 -12t-12 -5h-37q-7 0 -12 5t-5 12v169h-166q-7 0 -12 5t-5 12v35q0 7 5 12t12 5h166v168q0 7 5 12t12 5zM494 50v-33q0 -7 -5 -12t-12 -5h-404q-7 0 -12 5t-5 12v33
q0 7 5 12t12 5h404q7 0 12 -5t5 -12z" />
    <glyph glyph-name="twosuperior" unicode="&#xb2;" horiz-adv-x="304"
d="M266 498h-226q-11 0 -11 10v27q0 8 7 15l105 90q41 35 60 58t19 49q0 28 -19.5 45t-48.5 17q-56 0 -79 -61q-4 -12 -18 -8l-22 6q-10 3 -8 14q9 39 44 66.5t83 27.5q50 0 84.5 -29.5t34.5 -75.5q0 -33 -18.5 -62t-61.5 -65l-93 -77h168q12 0 12 -11v-25q0 -11 -12 -11z
" />
    <glyph glyph-name="threesuperior" unicode="&#xb3;" horiz-adv-x="310"
d="M154 815q-47 0 -68 -42q-5 -10 -16 -6l-21 8q-11 4 -5 16q12 28 41 47t72 19q47 0 77 -25.5t30 -65.5q0 -56 -51 -77q31 -8 50 -31.5t19 -55.5q0 -47 -36.5 -78t-92.5 -31q-59 0 -95.5 31t-36.5 79v8q0 8 8 8h34q8 0 8 -8v-8q0 -26 21.5 -47t59.5 -21q35 0 57 20t22 47
t-20 44.5t-55 17.5h-11q-11 0 -11 11v18q0 12 11 12h11q27 0 43.5 15.5t16.5 38.5q0 24 -17 40t-45 16z" />
    <glyph glyph-name="acute" unicode="&#xb4;" horiz-adv-x="205"
d="M158 692q8 0 11.5 -6t-0.5 -12l-75 -134q-8 -14 -20 -14h-27q-8 0 -11.5 5t-0.5 12l52 134q5 15 22 15h49z" />
    <glyph glyph-name="mu" unicode="&#xb5;" horiz-adv-x="594"
d="M80 447q0 7 5 12t12 5h36q7 0 12 -5t5 -12v-247q0 -72 37.5 -112.5t107.5 -40.5q69 0 109.5 42.5t40.5 110.5v247q0 7 5 12t12 5h36q7 0 11.5 -5t4.5 -12v-430q0 -7 -4.5 -12t-11.5 -5h-36q-7 0 -12 4.5t-5 11.5v65q-20 -42 -63.5 -68t-99.5 -26q-46 0 -84 17.5t-54 45.5
v-187q0 -7 -5 -12t-12 -5h-30q-7 0 -12 5t-5 12v584z" />
    <glyph glyph-name="paragraph" unicode="&#xb6;" horiz-adv-x="545"
d="M33 514q0 77 53.5 131.5t131.5 54.5h215q7 0 12 -5t5 -12v-666q0 -7 -5 -12t-12 -5h-26q-7 0 -12 5t-5 12v628h-111v-628q0 -7 -4.5 -12t-11.5 -5h-28q-7 0 -11.5 5t-4.5 12v313h-4q-78 0 -130 53.5t-52 130.5z" />
    <glyph glyph-name="periodcentered" unicode="&#xb7;" horiz-adv-x="248"
d="M124 289q-28 0 -47.5 19.5t-19.5 47.5t19.5 47.5t47.5 19.5t47.5 -19.5t19.5 -47.5t-19.5 -47.5t-47.5 -19.5z" />
    <glyph glyph-name="cedilla" unicode="&#xb8;" horiz-adv-x="186"
d="M94 6l68 -5l-61 -135q-6 -14 -19 -14h-31q-17 0 -11 18z" />
    <glyph glyph-name="onesuperior" unicode="&#xb9;" horiz-adv-x="175"
d="M15 775v22q0 10 9 10h15q29 0 42 28q6 15 21 15h13q11 0 11 -10v-331q0 -11 -12 -11h-26q-11 0 -11 11v257h-53q-9 0 -9 9z" />
    <glyph glyph-name="ordmasculine" unicode="&#xba;" horiz-adv-x="454"
d="M228 366q-72 0 -122 50t-50 125t50 125.5t122 50.5t121.5 -50.5t49.5 -125.5t-49.5 -125t-121.5 -50zM227 664q-50 0 -82 -35.5t-32 -87.5t32 -87t82 -35t82.5 35t32.5 87t-32.5 87.5t-82.5 35.5zM366 264h-277q-7 0 -11.5 4.5t-4.5 10.5v23q0 16 16 16h277
q6 0 10.5 -4.5t4.5 -11.5v-23q0 -6 -4.5 -10.5t-10.5 -4.5z" />
    <glyph glyph-name="guillemotright" unicode="&#xbb;" horiz-adv-x="442"
d="M392 227l-96 -183q-7 -14 -24 -14h-40q-6 0 -9 5.5t0 11.5l95 194l-95 194q-3 7 0 12t9 5h40q17 0 24 -14l96 -183q8 -15 0 -28zM223 227l-96 -183q-7 -14 -25 -14h-39q-6 0 -9.5 5.5t-0.5 11.5l95 194l-95 194q-3 7 0.5 12t9.5 5h39q18 0 25 -14l96 -183q7 -15 0 -28z
" />
    <glyph glyph-name="onequarter" unicode="&#xbc;" horiz-adv-x="666"
d="M559 673l-454 -654q-12 -19 -26 -19h-11q-11 0 -14.5 8.5t3.5 18.5l454 654q12 19 26 19h11q11 0 14.5 -8.5t-3.5 -18.5zM42 625v22q0 10 9 10h15q29 0 42 28q6 15 21 15h13q11 0 11 -10v-331q0 -11 -12 -11h-26q-11 0 -11 11v257h-53q-9 0 -9 9zM557 0h-25q-12 0 -12 11
v88h-164q-10 0 -10 11v17q0 14 5 21l149 194q7 10 17 10h40q5 0 8.5 -4t3.5 -8v-200h54q10 0 10 -12v-17q0 -12 -10 -12h-54v-88q0 -11 -12 -11zM397 140h123v161z" />
    <glyph glyph-name="onehalf" unicode="&#xbd;" horiz-adv-x="710"
d="M552 673l-454 -654q-12 -19 -26 -19h-11q-11 0 -14.5 8.5t3.5 18.5l454 654q12 19 26 19h11q11 0 14.5 -8.5t-3.5 -18.5zM42 625v22q0 10 9 10h15q29 0 42 28q6 15 21 15h13q11 0 11 -10v-331q0 -11 -12 -11h-26q-11 0 -11 11v257h-53q-9 0 -9 9zM663 0h-226
q-11 0 -11 10v27q0 8 7 15l105 90q41 35 60 58t19 49q0 28 -19.5 45t-48.5 17q-56 0 -79 -61q-4 -12 -18 -8l-22 6q-10 3 -8 14q9 39 44 66.5t83 27.5q50 0 84.5 -29.5t34.5 -75.5q0 -33 -18.5 -62t-61.5 -65l-93 -77h168q12 0 12 -11v-25q0 -11 -12 -11z" />
    <glyph glyph-name="threequarters" unicode="&#xbe;" horiz-adv-x="726"
d="M628 673l-454 -654q-12 -19 -26 -19h-11q-11 0 -14.5 8.5t3.5 18.5l454 654q12 19 26 19h11q11 0 14.5 -8.5t-3.5 -18.5zM170 667q-47 0 -68 -42q-5 -10 -16 -6l-21 8q-11 4 -5 16q12 28 41 47t72 19q47 0 77 -25.5t30 -65.5q0 -56 -51 -77q31 -8 50 -31.5t19 -55.5
q0 -47 -36.5 -78t-92.5 -31q-59 0 -95.5 31t-36.5 79v8q0 8 8 8h34q8 0 8 -8v-8q0 -26 21.5 -47t59.5 -21q35 0 57 20t22 47t-20 44.5t-55 17.5h-11q-11 0 -11 11v18q0 12 11 12h11q27 0 43.5 15.5t16.5 38.5q0 24 -17 40t-45 16zM616 0h-25q-12 0 -12 11v88h-164
q-10 0 -10 11v17q0 14 5 21l149 194q7 10 17 10h40q4 0 8 -4t4 -8v-200h54q10 0 10 -12v-17q0 -12 -10 -12h-54v-88q0 -11 -12 -11zM456 140h123v161z" />
    <glyph glyph-name="questiondown" unicode="&#xbf;" horiz-adv-x="464"
d="M228 474q28 0 47 -19t19 -46t-19 -46t-47 -19q-26 0 -45.5 19t-19.5 46t19.5 46t45.5 19zM232 -252q-86 0 -141 49.5t-55 122.5q0 41 16.5 78.5t40 65t47.5 53.5t40.5 56t16.5 61v12q0 6 4.5 10t9.5 4h38q6 0 10.5 -4.5t4.5 -10.5v-16q0 -37 -16 -71.5t-38.5 -61
t-45.5 -52.5t-39 -57t-16 -63q0 -50 36.5 -81.5t88.5 -31.5q94 0 141 95q3 6 11.5 8t15.5 -1l25 -11q16 -8 7 -28q-26 -56 -80 -91t-122 -35z" />
    <glyph glyph-name="Agrave" unicode="&#xc0;" horiz-adv-x="644"
d="M221 928h49q17 0 22 -15l52 -134q5 -17 -13 -17h-27q-11 0 -19 14l-76 134q-3 6 0.5 12t11.5 6zM178 263h284l-142 373zM84 16q-5 -16 -18 -16h-42q-8 0 -11.5 6t-0.5 13l259 665q6 16 21 16h60q15 0 21 -16l259 -665q4 -7 0 -13t-11 -6h-45q-14 0 -20 16l-71 186h-330z
" />
    <glyph glyph-name="Aacute" unicode="&#xc1;" horiz-adv-x="644"
d="M427 928q8 0 11.5 -6t-0.5 -12l-75 -134q-8 -14 -20 -14h-27q-8 0 -11.5 5t-0.5 12l52 134q5 15 22 15h49zM178 263h284l-142 373zM84 16q-5 -16 -18 -16h-42q-8 0 -11.5 6t-0.5 13l259 665q6 16 21 16h60q15 0 21 -16l259 -665q4 -7 0 -13t-11 -6h-45q-14 0 -20 16
l-71 186h-330z" />
    <glyph glyph-name="Acircumflex" unicode="&#xc2;" horiz-adv-x="644"
d="M304 928h38q15 0 25 -15l90 -133q4 -7 0.5 -12.5t-9.5 -5.5h-34q-13 0 -22 12l-70 94l-69 -94q-11 -12 -22 -12h-34q-7 0 -10 5.5t1 12.5l90 133q8 15 26 15zM178 263h284l-142 373zM84 16q-5 -16 -18 -16h-42q-8 0 -11.5 6t-0.5 13l259 665q6 16 21 16h60q15 0 21 -16
l259 -665q4 -7 0 -13t-11 -6h-45q-14 0 -20 16l-71 186h-330z" />
    <glyph glyph-name="Atilde" unicode="&#xc3;" horiz-adv-x="644"
d="M388 777q-21 0 -70 17t-59 17q-22 0 -38 -25q-7 -13 -23 -2l-13 9q-8 5 -8 14q0 21 23.5 44t56.5 23q21 0 69.5 -17t59.5 -17q21 0 38 25q9 13 23 2l13 -9q8 -5 8 -14q0 -21 -23.5 -44t-56.5 -23zM178 263h284l-142 373zM84 16q-5 -16 -18 -16h-42q-8 0 -11.5 6t-0.5 13
l259 665q6 16 21 16h60q15 0 21 -16l259 -665q4 -7 0 -13t-11 -6h-45q-14 0 -20 16l-71 186h-330z" />
    <glyph glyph-name="Adieresis" unicode="&#xc4;" horiz-adv-x="644"
d="M183 814q0 22 16.5 38.5t38.5 16.5t38 -16.5t16 -38.5t-16 -38t-38 -16t-38.5 16t-16.5 38zM351 814q0 22 16 38.5t38 16.5t38.5 -16.5t16.5 -38.5t-16.5 -38t-38.5 -16t-38 16t-16 38zM178 263h284l-142 373zM84 16q-5 -16 -18 -16h-42q-8 0 -11.5 6t-0.5 13l259 665
q6 16 21 16h60q15 0 21 -16l259 -665q4 -7 0 -13t-11 -6h-45q-14 0 -20 16l-71 186h-330z" />
    <glyph glyph-name="Aring" unicode="&#xc5;" horiz-adv-x="644"
d="M437 857q-1 -48 -34 -79t-81 -31q-47 0 -80.5 31.5t-33.5 78.5t33.5 78.5t80.5 31.5q48 0 81 -31t34 -79zM382 857q0 26 -17 44t-43 18t-43 -18t-17 -44t17 -44t43 -18t43 18t17 44zM178 263h284l-142 373zM84 16q-5 -16 -18 -16h-42q-8 0 -11.5 6t-0.5 13l259 665
q6 16 21 16h60q15 0 21 -16l259 -665q4 -7 0 -13t-11 -6h-45q-14 0 -20 16l-71 186h-330z" />
    <glyph glyph-name="AE" unicode="&#xc6;" horiz-adv-x="909"
d="M465 263l-143 379l-144 -379h287zM84 16q-5 -16 -22 -16h-38q-7 0 -11 5.5t-1 13.5l259 665q6 16 23 16h570q7 0 12 -5t5 -12v-33q0 -7 -5 -12t-12 -5h-468l95 -246h238q17 0 17 -17v-31q0 -7 -5 -12t-12 -5h-215l99 -255h251q7 0 12 -5t5 -12v-33q0 -7 -5 -12t-12 -5
h-284q-17 0 -23 16l-72 186h-331z" />
    <glyph glyph-name="Ccedilla" unicode="&#xc7;" horiz-adv-x="747"
d="M357 -134q-6 -14 -19 -14h-31q-17 0 -11 18l48 120q-132 18 -218.5 118t-86.5 242q0 155 103 259t252 104q111 0 200.5 -59t127.5 -160q2 -6 -1 -11t-10 -6l-44 -7q-13 -1 -18 14q-34 77 -100 120.5t-155 43.5q-122 0 -201.5 -85.5t-79.5 -212.5t79.5 -212.5t201.5 -85.5
q89 0 155 43.5t100 120.5q5 15 18 14l44 -7q7 -1 10 -6t1 -11q-36 -96 -120.5 -155t-189.5 -64z" />
    <glyph glyph-name="Egrave" unicode="&#xc8;" horiz-adv-x="611"
d="M226 928h49q17 0 22 -15l52 -134q5 -17 -13 -17h-27q-11 0 -19 14l-76 134q-3 6 0.5 12t11.5 6zM103 700h461q7 0 12 -5t5 -12v-32q0 -7 -5 -12t-12 -5h-406v-247h208q17 0 17 -17v-31q0 -7 -5 -12t-12 -5h-208v-256h408q7 0 12 -5t5 -12v-32q0 -7 -5 -12t-12 -5h-463
q-7 0 -12 5t-5 12v666q0 7 5 12t12 5z" />
    <glyph glyph-name="Eacute" unicode="&#xc9;" horiz-adv-x="611"
d="M432 928q8 0 11.5 -6t-0.5 -12l-75 -134q-8 -14 -20 -14h-27q-8 0 -11.5 5t-0.5 12l52 134q5 15 22 15h49zM103 700h461q7 0 12 -5t5 -12v-32q0 -7 -5 -12t-12 -5h-406v-247h208q17 0 17 -17v-31q0 -7 -5 -12t-12 -5h-208v-256h408q7 0 12 -5t5 -12v-32q0 -7 -5 -12
t-12 -5h-463q-7 0 -12 5t-5 12v666q0 7 5 12t12 5z" />
    <glyph glyph-name="Ecircumflex" unicode="&#xca;" horiz-adv-x="611"
d="M308 928h38q15 0 25 -15l90 -133q4 -7 0.5 -12.5t-9.5 -5.5h-34q-13 0 -22 12l-70 94l-69 -94q-10 -12 -22 -12h-34q-7 0 -10 5.5t1 12.5l90 133q8 15 26 15zM103 700h461q7 0 12 -5t5 -12v-32q0 -7 -5 -12t-12 -5h-406v-247h208q17 0 17 -17v-31q0 -7 -5 -12t-12 -5
h-208v-256h408q7 0 12 -5t5 -12v-32q0 -7 -5 -12t-12 -5h-463q-7 0 -12 5t-5 12v666q0 7 5 12t12 5z" />
    <glyph glyph-name="Edieresis" unicode="&#xcb;" horiz-adv-x="611"
d="M188 814q0 22 16.5 38.5t38.5 16.5t38 -16.5t16 -38.5t-16 -38t-38 -16t-38.5 16t-16.5 38zM356 814q0 22 16 38.5t38 16.5t38.5 -16.5t16.5 -38.5t-16.5 -38t-38.5 -16t-38 16t-16 38zM103 700h461q7 0 12 -5t5 -12v-32q0 -7 -5 -12t-12 -5h-406v-247h208q17 0 17 -17
v-31q0 -7 -5 -12t-12 -5h-208v-256h408q7 0 12 -5t5 -12v-32q0 -7 -5 -12t-12 -5h-463q-7 0 -12 5t-5 12v666q0 7 5 12t12 5z" />
    <glyph glyph-name="Igrave" unicode="&#xcc;" horiz-adv-x="244"
d="M21 928h49q17 0 22 -15l52 -134q5 -17 -13 -17h-27q-11 0 -19 14l-76 134q-3 6 0.5 12t11.5 6zM141 0h-38q-7 0 -12 5t-5 12v666q0 7 5 12t12 5h38q7 0 12 -5t5 -12v-666q0 -7 -5 -12t-12 -5z" />
    <glyph glyph-name="Iacute" unicode="&#xcd;" horiz-adv-x="244"
d="M227 928q8 0 11.5 -6t-0.5 -12l-75 -134q-8 -14 -20 -14h-27q-8 0 -11.5 5t-0.5 12l52 134q5 15 22 15h49zM141 0h-38q-7 0 -12 5t-5 12v666q0 7 5 12t12 5h38q7 0 12 -5t5 -12v-666q0 -7 -5 -12t-12 -5z" />
    <glyph glyph-name="Icircumflex" unicode="&#xce;" horiz-adv-x="244"
d="M103 928h38q15 0 25 -15l90 -133q4 -7 0.5 -12.5t-9.5 -5.5h-34q-13 0 -22 12l-70 94l-69 -94q-10 -12 -22 -12h-34q-7 0 -10 5.5t1 12.5l90 133q8 15 26 15zM141 0h-38q-7 0 -12 5t-5 12v666q0 7 5 12t12 5h38q7 0 12 -5t5 -12v-666q0 -7 -5 -12t-12 -5z" />
    <glyph glyph-name="Idieresis" unicode="&#xcf;" horiz-adv-x="244"
d="M-17 814q0 22 16.5 38.5t38.5 16.5t38 -16.5t16 -38.5t-16 -38t-38 -16t-38.5 16t-16.5 38zM151 814q0 22 16 38.5t38 16.5t38.5 -16.5t16.5 -38.5t-16.5 -38t-38.5 -16t-38 16t-16 38zM141 0h-38q-7 0 -12 5t-5 12v666q0 7 5 12t12 5h38q7 0 12 -5t5 -12v-666
q0 -7 -5 -12t-12 -5z" />
    <glyph glyph-name="Eth" unicode="&#xd0;" horiz-adv-x="741"
d="M328 0h-213q-7 0 -12 5t-5 12v308h-80q-7 0 -12 5t-5 12v26q0 7 5 12t12 5h80v298q0 7 5 12t12 5h213q177 0 275 -95t98 -255q0 -159 -98 -254.5t-275 -95.5zM170 66h168q130 0 209.5 75t79.5 209t-79.5 209t-209.5 75h-168v-249h208q7 0 12 -5t5 -12v-26q0 -7 -5 -12
t-12 -5h-208v-259z" />
    <glyph glyph-name="Ntilde" unicode="&#xd1;" horiz-adv-x="721"
d="M427 777q-21 0 -70 17t-59 17q-22 0 -38 -25q-7 -13 -23 -2l-13 9q-8 5 -8 14q0 21 23.5 44t56.5 23q21 0 69.5 -17t59.5 -17q21 0 38 25q9 13 23 2l13 -9q8 -5 8 -14q0 -21 -23.5 -44t-56.5 -23zM546 15l-388 572v-570q0 -7 -5 -12t-12 -5h-38q-7 0 -12 5t-5 12v666
q0 7 5 12t12 5h49q15 0 26 -14l386 -570v567q0 7 4.5 12t11.5 5h38q7 0 12 -5t5 -12v-666q0 -7 -5 -12t-12 -5h-43q-19 0 -29 15z" />
    <glyph glyph-name="Ograve" unicode="&#xd2;" horiz-adv-x="787"
d="M292 928h49q17 0 22 -15l52 -134q5 -17 -13 -17h-27q-11 0 -19 14l-76 134q-3 6 0.5 12t11.5 6zM748 350q0 -155 -103.5 -259t-251.5 -104t-251 104t-103 259t103 259t251 104t251.5 -104t103.5 -259zM674 350q0 128 -79.5 213t-201.5 85t-201 -85t-79 -213t79 -213
t201 -85t201.5 85t79.5 213z" />
    <glyph glyph-name="Oacute" unicode="&#xd3;" horiz-adv-x="787"
d="M498 928q8 0 11.5 -6t-0.5 -12l-75 -134q-8 -14 -20 -14h-27q-8 0 -11.5 5t-0.5 12l52 134q5 15 22 15h49zM748 350q0 -155 -103.5 -259t-251.5 -104t-251 104t-103 259t103 259t251 104t251.5 -104t103.5 -259zM674 350q0 128 -79.5 213t-201.5 85t-201 -85t-79 -213
t79 -213t201 -85t201.5 85t79.5 213z" />
    <glyph glyph-name="Ocircumflex" unicode="&#xd4;" horiz-adv-x="787"
d="M375 928h38q15 0 25 -15l90 -133q4 -7 0.5 -12.5t-9.5 -5.5h-34q-13 0 -22 12l-70 94l-69 -94q-10 -12 -22 -12h-34q-7 0 -10 5.5t1 12.5l90 133q8 15 26 15zM748 350q0 -155 -103.5 -259t-251.5 -104t-251 104t-103 259t103 259t251 104t251.5 -104t103.5 -259zM674 350
q0 128 -79.5 213t-201.5 85t-201 -85t-79 -213t79 -213t201 -85t201.5 85t79.5 213z" />
    <glyph glyph-name="Otilde" unicode="&#xd5;" horiz-adv-x="787"
d="M459 777q-21 0 -70 17t-59 17q-22 0 -38 -25q-7 -13 -23 -2l-13 9q-8 5 -8 14q0 21 23.5 44t56.5 23q21 0 69.5 -17t59.5 -17q21 0 38 25q9 13 23 2l13 -9q8 -5 8 -14q0 -21 -23.5 -44t-56.5 -23zM748 350q0 -155 -103.5 -259t-251.5 -104t-251 104t-103 259t103 259
t251 104t251.5 -104t103.5 -259zM674 350q0 128 -79.5 213t-201.5 85t-201 -85t-79 -213t79 -213t201 -85t201.5 85t79.5 213z" />
    <glyph glyph-name="Odieresis" unicode="&#xd6;" horiz-adv-x="787"
d="M254 814q0 22 16.5 38.5t38.5 16.5t38 -16.5t16 -38.5t-16 -38t-38 -16t-38.5 16t-16.5 38zM422 814q0 22 16 38.5t38 16.5t38.5 -16.5t16.5 -38.5t-16.5 -38t-38.5 -16t-38 16t-16 38zM748 350q0 -155 -103.5 -259t-251.5 -104t-251 104t-103 259t103 259t251 104
t251.5 -104t103.5 -259zM674 350q0 128 -79.5 213t-201.5 85t-201 -85t-79 -213t79 -213t201 -85t201.5 85t79.5 213z" />
    <glyph glyph-name="multiply" unicode="&#xd7;" horiz-adv-x="538"
d="M118 155q-12 -12 -25 -1l-24 25q-13 11 0 24l152 152l-152 151q-13 12 -1 24l25 25q11 13 24 0l152 -152l152 152q13 13 24 0l25 -25q12 -12 -1 -24l-151 -151l151 -152q13 -13 0 -24l-24 -25q-13 -11 -25 1l-151 151z" />
    <glyph glyph-name="Oslash" unicode="&#xd8;" horiz-adv-x="787"
d="M748 350q0 -155 -103.5 -259t-251.5 -104t-251 104t-103 259t103 259t251 104t251.5 -104t103.5 -259zM113 350q0 -118 69 -201t178 -95v592q-109 -12 -178 -95t-69 -201zM674 350q0 118 -69.5 201t-178.5 95v-592q109 12 178.5 95t69.5 201z" />
    <glyph glyph-name="Ugrave" unicode="&#xd9;" horiz-adv-x="701"
d="M250 928h49q17 0 22 -15l52 -134q5 -17 -13 -17h-27q-11 0 -19 14l-76 134q-3 6 0.5 12t11.5 6zM622 239q0 -118 -75.5 -185t-195.5 -67t-196 66.5t-76 184.5v445q0 7 5 12t12 5h37q7 0 12 -5t5 -12v-445q0 -87 56.5 -137t144.5 -50q87 0 144 50t57 137v445q0 7 5 12
t12 5h36q7 0 12 -5t5 -12v-444z" />
    <glyph glyph-name="Uacute" unicode="&#xda;" horiz-adv-x="701"
d="M456 928q8 0 11.5 -6t-0.5 -12l-75 -134q-8 -14 -20 -14h-27q-8 0 -11.5 5t-0.5 12l52 134q5 15 22 15h49zM622 239q0 -118 -75.5 -185t-195.5 -67t-196 66.5t-76 184.5v445q0 7 5 12t12 5h37q7 0 12 -5t5 -12v-445q0 -87 56.5 -137t144.5 -50q87 0 144 50t57 137v445
q0 7 5 12t12 5h36q7 0 12 -5t5 -12v-444z" />
    <glyph glyph-name="Ucircumflex" unicode="&#xdb;" horiz-adv-x="701"
d="M333 928h38q15 0 25 -15l90 -133q4 -7 0.5 -12.5t-9.5 -5.5h-34q-13 0 -22 12l-70 94l-69 -94q-10 -12 -22 -12h-34q-7 0 -10 5.5t1 12.5l90 133q8 15 26 15zM622 239q0 -118 -75.5 -185t-195.5 -67t-196 66.5t-76 184.5v445q0 7 5 12t12 5h37q7 0 12 -5t5 -12v-445
q0 -87 56.5 -137t144.5 -50q87 0 144 50t57 137v445q0 7 5 12t12 5h36q7 0 12 -5t5 -12v-444z" />
    <glyph glyph-name="Udieresis" unicode="&#xdc;" horiz-adv-x="701"
d="M212 814q0 22 16.5 38.5t38.5 16.5t38 -16.5t16 -38.5t-16 -38t-38 -16t-38.5 16t-16.5 38zM380 814q0 22 16 38.5t38 16.5t38.5 -16.5t16.5 -38.5t-16.5 -38t-38.5 -16t-38 16t-16 38zM622 239q0 -118 -75.5 -185t-195.5 -67t-196 66.5t-76 184.5v445q0 7 5 12t12 5h37
q7 0 12 -5t5 -12v-445q0 -87 56.5 -137t144.5 -50q87 0 144 50t57 137v445q0 7 5 12t12 5h36q7 0 12 -5t5 -12v-444z" />
    <glyph glyph-name="Yacute" unicode="&#xdd;" horiz-adv-x="618"
d="M414 928q8 0 11.5 -6t-0.5 -12l-75 -134q-8 -14 -20 -14h-27q-8 0 -11.5 5t-0.5 12l52 134q5 15 22 15h49zM273 17v282l-255 383q-4 6 -1 12t9 6h54q12 0 22 -13l206 -313h4l206 313q10 13 21 13h54q6 0 9 -5.5t-1 -12.5l-256 -383v-282q0 -7 -5 -12t-12 -5h-38
q-7 0 -12 5t-5 12z" />
    <glyph glyph-name="Thorn" unicode="&#xde;" horiz-adv-x="621"
d="M140 0h-37q-7 0 -12 5t-5 12v666q0 7 5 12t12 5h37q7 0 12 -5t5 -12v-99h189q118 0 180.5 -61t62.5 -156q-1 -95 -63.5 -157t-179.5 -62h-189v-131q0 -7 -5 -12t-12 -5zM157 212h187q74 0 123 41t49 115q0 73 -49 112.5t-123 39.5h-187v-308z" />
    <glyph glyph-name="germandbls" unicode="&#xdf;" horiz-adv-x="536"
d="M67 495q0 104 58.5 161.5t151.5 57.5q89 0 136 -47t47 -105q0 -34 -18 -71t-40 -62.5t-40 -50t-18 -36.5q0 -17 27 -40.5t59 -46t59 -58.5t27 -74q0 -63 -44.5 -100t-109.5 -37q-48 0 -89 13q-17 6 -13 20l11 31q5 14 18 10q41 -12 66 -12q37 0 62.5 19t25.5 54
q0 26 -27.5 55t-60 50t-60 50t-27.5 56t61 108.5t61 115.5q0 40 -30.5 68.5t-83.5 28.5q-65 0 -102 -43.5t-37 -112.5v-480q0 -7 -4.5 -12t-11.5 -5h-37q-7 0 -12 5t-5 12v478z" />
    <glyph glyph-name="agrave" unicode="&#xe0;"
d="M175 692h49q17 0 22 -15l52 -134q5 -17 -13 -17h-27q-11 0 -19 14l-76 134q-3 6 0.5 12t11.5 6zM106 232q0 -77 48 -129t121 -52t121 52.5t48 128.5q0 77 -48 129t-121 52q-74 0 -121.5 -52t-47.5 -129zM35 232q0 106 68 175.5t166 69.5q58 0 105 -28t69 -73v71q0 7 5 12
t12 5h36q7 0 11.5 -5t4.5 -12v-430q0 -7 -4.5 -12t-11.5 -5h-36q-7 0 -12 5t-5 12v71q-23 -45 -69.5 -73t-104.5 -28q-98 0 -166 69.5t-68 175.5z" />
    <glyph glyph-name="aacute" unicode="&#xe1;"
d="M381 692q8 0 11.5 -6t-0.5 -12l-75 -134q-8 -14 -20 -14h-27q-8 0 -11.5 5t-0.5 12l52 134q5 15 22 15h49zM106 232q0 -77 48 -129t121 -52t121 52.5t48 128.5q0 77 -48 129t-121 52q-74 0 -121.5 -52t-47.5 -129zM35 232q0 106 68 175.5t166 69.5q58 0 105 -28t69 -73
v71q0 7 5 12t12 5h36q7 0 11.5 -5t4.5 -12v-430q0 -7 -4.5 -12t-11.5 -5h-36q-7 0 -12 5t-5 12v71q-23 -45 -69.5 -73t-104.5 -28q-98 0 -166 69.5t-68 175.5z" />
    <glyph glyph-name="acircumflex" unicode="&#xe2;"
d="M258 692h38q15 0 25 -15l90 -133q4 -7 0.5 -12.5t-9.5 -5.5h-34q-13 0 -22 12l-70 94l-69 -94q-11 -12 -22 -12h-34q-7 0 -10 5.5t1 12.5l90 133q8 15 26 15zM106 232q0 -77 48 -129t121 -52t121 52.5t48 128.5q0 77 -48 129t-121 52q-74 0 -121.5 -52t-47.5 -129z
M35 232q0 106 68 175.5t166 69.5q58 0 105 -28t69 -73v71q0 7 5 12t12 5h36q7 0 11.5 -5t4.5 -12v-430q0 -7 -4.5 -12t-11.5 -5h-36q-7 0 -12 5t-5 12v71q-23 -45 -69.5 -73t-104.5 -28q-98 0 -166 69.5t-68 175.5z" />
    <glyph glyph-name="atilde" unicode="&#xe3;"
d="M342 541q-21 0 -70 17t-59 17q-22 0 -38 -25q-7 -13 -23 -2l-13 9q-8 5 -8 14q0 21 23.5 44t56.5 23q21 0 69.5 -17t59.5 -17q21 0 38 25q9 13 23 2l13 -9q8 -5 8 -14q0 -21 -23.5 -44t-56.5 -23zM106 232q0 -77 48 -129t121 -52t121 52.5t48 128.5q0 77 -48 129t-121 52
q-74 0 -121.5 -52t-47.5 -129zM35 232q0 106 68 175.5t166 69.5q58 0 105 -28t69 -73v71q0 7 5 12t12 5h36q7 0 11.5 -5t4.5 -12v-430q0 -7 -4.5 -12t-11.5 -5h-36q-7 0 -12 5t-5 12v71q-23 -45 -69.5 -73t-104.5 -28q-98 0 -166 69.5t-68 175.5z" />
    <glyph glyph-name="adieresis" unicode="&#xe4;"
d="M137 578q0 22 16.5 38.5t38.5 16.5t38 -16.5t16 -38.5t-16 -38t-38 -16t-38.5 16t-16.5 38zM305 578q0 22 16 38.5t38 16.5t38.5 -16.5t16.5 -38.5t-16.5 -38t-38.5 -16t-38 16t-16 38zM106 232q0 -77 48 -129t121 -52t121 52.5t48 128.5q0 77 -48 129t-121 52
q-74 0 -121.5 -52t-47.5 -129zM35 232q0 106 68 175.5t166 69.5q58 0 105 -28t69 -73v71q0 7 5 12t12 5h36q7 0 11.5 -5t4.5 -12v-430q0 -7 -4.5 -12t-11.5 -5h-36q-7 0 -12 5t-5 12v71q-23 -45 -69.5 -73t-104.5 -28q-98 0 -166 69.5t-68 175.5z" />
    <glyph glyph-name="aring" unicode="&#xe5;"
d="M391 621q-1 -48 -34 -79t-81 -31q-47 0 -80.5 31.5t-33.5 78.5t33.5 78.5t80.5 31.5q48 0 81 -31t34 -79zM336 621q0 26 -17 44t-43 18t-43 -18t-17 -44t17 -44t43 -18t43 18t17 44zM106 232q0 -77 48 -129t121 -52t121 52.5t48 128.5q0 77 -48 129t-121 52
q-74 0 -121.5 -52t-47.5 -129zM35 232q0 106 68 175.5t166 69.5q58 0 105 -28t69 -73v71q0 7 5 12t12 5h36q7 0 11.5 -5t4.5 -12v-430q0 -7 -4.5 -12t-11.5 -5h-36q-7 0 -12 5t-5 12v71q-23 -45 -69.5 -73t-104.5 -28q-98 0 -166 69.5t-68 175.5z" />
    <glyph glyph-name="ae" unicode="&#xe6;" horiz-adv-x="896"
d="M639 -13q-117 0 -186 84q-63 -84 -178 -84q-101 0 -170.5 70t-69.5 175q0 104 70 174.5t170 70.5q113 0 179 -84q69 84 182 84q100 0 166.5 -65.5t66.5 -168.5v-13q0 -17 -16 -17h-384q5 -71 53 -118t119 -47q81 0 141 68q11 13 24 4l29 -18q12 -8 4 -21q-30 -44 -82 -69
t-118 -25zM801 264q-7 71 -52.5 112.5t-112.5 41.5q-66 0 -111.5 -43.5t-53.5 -110.5h330zM275 51q94 0 143 77q-20 48 -20 103q0 57 21 103q-49 79 -144 79q-74 0 -122 -52t-48 -129t48 -129t122 -52z" />
    <glyph glyph-name="ccedilla" unicode="&#xe7;" horiz-adv-x="514"
d="M236 -134q-6 -14 -19 -14h-31q-17 0 -11 18l49 122q-83 17 -136 83.5t-53 156.5q0 105 69.5 175t170.5 70q68 0 123.5 -32t82.5 -87q9 -17 -7 -25l-26 -13q-16 -9 -26 7q-50 86 -147 86q-73 0 -121 -52t-48 -129t48 -129t121 -52q97 0 147 86q10 16 26 7l26 -13
q16 -8 7 -25q-25 -52 -76 -83.5t-114 -35.5z" />
    <glyph glyph-name="egrave" unicode="&#xe8;" horiz-adv-x="533"
d="M167 692h49q17 0 22 -15l52 -134q5 -17 -13 -17h-27q-11 0 -19 14l-76 134q-3 6 0.5 12t11.5 6zM273 477q100 0 166.5 -65.5t66.5 -168.5v-13q0 -17 -16 -17h-384q5 -71 53 -118t119 -47q81 0 141 68q11 13 24 4l29 -18q12 -8 4 -21q-30 -44 -82 -69t-118 -25
q-105 0 -173 69.5t-68 174.5q0 104 67.5 175t170.5 71zM438 264q-7 71 -52.5 112.5t-112.5 41.5q-66 0 -111.5 -43.5t-53.5 -110.5h330z" />
    <glyph glyph-name="eacute" unicode="&#xe9;" horiz-adv-x="533"
d="M373 692q8 0 11.5 -6t-0.5 -12l-75 -134q-8 -14 -20 -14h-27q-8 0 -11.5 5t-0.5 12l52 134q5 15 22 15h49zM273 477q100 0 166.5 -65.5t66.5 -168.5v-13q0 -17 -16 -17h-384q5 -71 53 -118t119 -47q81 0 141 68q11 13 24 4l29 -18q12 -8 4 -21q-30 -44 -82 -69t-118 -25
q-105 0 -173 69.5t-68 174.5q0 104 67.5 175t170.5 71zM438 264q-7 71 -52.5 112.5t-112.5 41.5q-66 0 -111.5 -43.5t-53.5 -110.5h330z" />
    <glyph glyph-name="ecircumflex" unicode="&#xea;" horiz-adv-x="533"
d="M250 692h38q15 0 25 -15l90 -133q4 -7 0.5 -12.5t-9.5 -5.5h-34q-13 0 -22 12l-70 94l-69 -94q-10 -12 -22 -12h-34q-7 0 -10 5.5t1 12.5l90 133q8 15 26 15zM273 477q100 0 166.5 -65.5t66.5 -168.5v-13q0 -17 -16 -17h-384q5 -71 53 -118t119 -47q81 0 141 68
q11 13 24 4l29 -18q12 -8 4 -21q-30 -44 -82 -69t-118 -25q-105 0 -173 69.5t-68 174.5q0 104 67.5 175t170.5 71zM438 264q-7 71 -52.5 112.5t-112.5 41.5q-66 0 -111.5 -43.5t-53.5 -110.5h330z" />
    <glyph glyph-name="edieresis" unicode="&#xeb;" horiz-adv-x="533"
d="M129 578q0 22 16.5 38.5t38.5 16.5t38 -16.5t16 -38.5t-16 -38t-38 -16t-38.5 16t-16.5 38zM297 578q0 22 16 38.5t38 16.5t38.5 -16.5t16.5 -38.5t-16.5 -38t-38.5 -16t-38 16t-16 38zM273 477q100 0 166.5 -65.5t66.5 -168.5v-13q0 -17 -16 -17h-384q5 -71 53 -118
t119 -47q81 0 141 68q11 13 24 4l29 -18q12 -8 4 -21q-30 -44 -82 -69t-118 -25q-105 0 -173 69.5t-68 174.5q0 104 67.5 175t170.5 71zM438 264q-7 71 -52.5 112.5t-112.5 41.5q-66 0 -111.5 -43.5t-53.5 -110.5h330z" />
    <glyph glyph-name="igrave" unicode="&#xec;" horiz-adv-x="201"
d="M0 692h49q17 0 22 -15l52 -134q5 -17 -13 -17h-27q-11 0 -19 14l-76 134q-3 6 0.5 12t11.5 6zM119 0h-36q-7 0 -12 5t-5 12v430q0 7 5 12t12 5h36q7 0 11.5 -5t4.5 -12v-430q0 -7 -4.5 -12t-11.5 -5z" />
    <glyph glyph-name="iacute" unicode="&#xed;" horiz-adv-x="201"
d="M206 692q8 0 11.5 -6t-0.5 -12l-75 -134q-8 -14 -20 -14h-27q-8 0 -11.5 5t-0.5 12l52 134q5 15 22 15h49zM119 0h-36q-7 0 -12 5t-5 12v430q0 7 5 12t12 5h36q7 0 11.5 -5t4.5 -12v-430q0 -7 -4.5 -12t-11.5 -5z" />
    <glyph glyph-name="icircumflex" unicode="&#xee;" horiz-adv-x="201"
d="M82 692h38q15 0 25 -15l90 -133q4 -7 0.5 -12.5t-9.5 -5.5h-34q-13 0 -22 12l-70 94l-69 -94q-10 -12 -22 -12h-34q-7 0 -10 5.5t1 12.5l90 133q8 15 26 15zM119 0h-36q-7 0 -12 5t-5 12v430q0 7 5 12t12 5h36q7 0 11.5 -5t4.5 -12v-430q0 -7 -4.5 -12t-11.5 -5z" />
    <glyph glyph-name="idieresis" unicode="&#xef;" horiz-adv-x="201"
d="M-38 578q0 22 16.5 38.5t38.5 16.5t38 -16.5t16 -38.5t-16 -38t-38 -16t-38.5 16t-16.5 38zM130 578q0 22 16 38.5t38 16.5t38.5 -16.5t16.5 -38.5t-16.5 -38t-38.5 -16t-38 16t-16 38zM119 0h-36q-7 0 -12 5t-5 12v430q0 7 5 12t12 5h36q7 0 11.5 -5t4.5 -12v-430
q0 -7 -4.5 -12t-11.5 -5z" />
    <glyph glyph-name="eth" unicode="&#xf0;" horiz-adv-x="558"
d="M277 -13q-102 0 -172 70.5t-70 175.5q0 103 67 172.5t165 69.5q41 0 84.5 -17.5t69.5 -50.5q-40 82 -129 175l-92 -54q-15 -9 -23 5l-10 17q-8 14 6 22l80 47q-49 45 -101 80q-6 4 -4 10t9 6l55 3q11 2 19 -5q32 -22 78 -61l91 53q15 9 23 -5l10 -17q8 -14 -6 -22
l-79 -46q172 -174 172 -367q0 -114 -69 -187.5t-174 -73.5zM105 232q0 -77 48.5 -129t122.5 -52t122 52t48 129t-48 129t-122 52t-122.5 -52t-48.5 -129z" />
    <glyph glyph-name="ntilde" unicode="&#xf1;" horiz-adv-x="566"
d="M339 541q-21 0 -70 17t-59 17q-22 0 -38 -25q-7 -13 -23 -2l-13 9q-8 5 -8 14q0 21 23.5 44t56.5 23q21 0 69.5 -17t59.5 -17q21 0 38 25q9 13 23 2l13 -9q8 -5 8 -14q0 -21 -23.5 -44t-56.5 -23zM437 16v242q0 73 -38 114.5t-109 41.5q-70 0 -112.5 -43.5t-42.5 -112.5
v-242q0 -7 -5 -11.5t-11 -4.5h-36q-7 0 -12 5t-5 12v430q0 7 5 12t12 5h36q6 0 11 -5t5 -12v-64q21 42 66.5 67.5t104.5 25.5q92 0 146 -55.5t54 -146.5v-258q0 -7 -5 -11.5t-12 -4.5h-35q-7 0 -12 4.5t-5 11.5z" />
    <glyph glyph-name="ograve" unicode="&#xf2;" horiz-adv-x="549"
d="M174 692h49q17 0 22 -15l52 -134q5 -17 -13 -17h-27q-11 0 -19 14l-76 134q-3 6 0.5 12t11.5 6zM35 232q0 104 69.5 174t170.5 70q100 0 169.5 -70t69.5 -174q0 -105 -69.5 -175t-169.5 -70q-101 0 -170.5 70t-69.5 175zM105 232q0 -77 48 -129t122 -52q73 0 121 52
t48 129t-47.5 129t-121.5 52t-122 -52t-48 -129z" />
    <glyph glyph-name="oacute" unicode="&#xf3;" horiz-adv-x="549"
d="M380 692q8 0 11.5 -6t-0.5 -12l-75 -134q-8 -14 -20 -14h-27q-8 0 -11.5 5t-0.5 12l52 134q5 15 22 15h49zM35 232q0 104 69.5 174t170.5 70q100 0 169.5 -70t69.5 -174q0 -105 -69.5 -175t-169.5 -70q-101 0 -170.5 70t-69.5 175zM105 232q0 -77 48 -129t122 -52
q73 0 121 52t48 129t-47.5 129t-121.5 52t-122 -52t-48 -129z" />
    <glyph glyph-name="ocircumflex" unicode="&#xf4;" horiz-adv-x="549"
d="M257 692h38q15 0 25 -15l90 -133q4 -7 0.5 -12.5t-9.5 -5.5h-34q-13 0 -22 12l-70 94l-69 -94q-10 -12 -22 -12h-34q-7 0 -10 5.5t1 12.5l90 133q8 15 26 15zM35 232q0 104 69.5 174t170.5 70q100 0 169.5 -70t69.5 -174q0 -105 -69.5 -175t-169.5 -70q-101 0 -170.5 70
t-69.5 175zM105 232q0 -77 48 -129t122 -52q73 0 121 52t48 129t-47.5 129t-121.5 52t-122 -52t-48 -129z" />
    <glyph glyph-name="otilde" unicode="&#xf5;" horiz-adv-x="549"
d="M341 541q-21 0 -70 17t-59 17q-22 0 -38 -25q-7 -13 -23 -2l-13 9q-8 5 -8 14q0 21 23.5 44t56.5 23q21 0 69.5 -17t59.5 -17q21 0 38 25q9 13 23 2l13 -9q8 -5 8 -14q0 -21 -23.5 -44t-56.5 -23zM35 232q0 104 69.5 174t170.5 70q100 0 169.5 -70t69.5 -174
q0 -105 -69.5 -175t-169.5 -70q-101 0 -170.5 70t-69.5 175zM105 232q0 -77 48 -129t122 -52q73 0 121 52t48 129t-47.5 129t-121.5 52t-122 -52t-48 -129z" />
    <glyph glyph-name="odieresis" unicode="&#xf6;" horiz-adv-x="549"
d="M136 578q0 22 16.5 38.5t38.5 16.5t38 -16.5t16 -38.5t-16 -38t-38 -16t-38.5 16t-16.5 38zM304 578q0 22 16 38.5t38 16.5t38.5 -16.5t16.5 -38.5t-16.5 -38t-38.5 -16t-38 16t-16 38zM35 232q0 104 69.5 174t170.5 70q100 0 169.5 -70t69.5 -174q0 -105 -69.5 -175
t-169.5 -70q-101 0 -170.5 70t-69.5 175zM105 232q0 -77 48 -129t122 -52q73 0 121 52t48 129t-47.5 129t-121.5 52t-122 -52t-48 -129z" />
    <glyph glyph-name="divide" unicode="&#xf7;" horiz-adv-x="533"
d="M266 468q-27 0 -46.5 19t-19.5 46q0 28 19.5 47t46.5 19t46 -19t19 -47q0 -27 -19 -46t-46 -19zM486 372v-35q0 -7 -5 -12t-12 -5h-405q-7 0 -12 5t-5 12v35q0 7 5 12t12 5h405q7 0 12 -5t5 -12zM266 101q-27 0 -46.5 19t-19.5 47q0 27 19.5 46t46.5 19t46 -19t19 -46
q0 -28 -19 -47t-46 -19z" />
    <glyph glyph-name="oslash" unicode="&#xf8;" horiz-adv-x="549"
d="M35 232q0 104 69.5 174t170.5 70q100 0 169.5 -70t69.5 -174q0 -105 -69.5 -175t-169.5 -70q-101 0 -170.5 70t-69.5 175zM444 232q0 68 -38 117.5t-99 60.5v-356q61 11 99 60.5t38 117.5zM105 232q0 -67 38 -116.5t99 -61.5v356q-61 -11 -99 -60.5t-38 -117.5z" />
    <glyph glyph-name="ugrave" unicode="&#xf9;" horiz-adv-x="560"
d="M177 692h49q17 0 22 -15l52 -134q5 -17 -13 -17h-27q-11 0 -19 14l-76 134q-3 6 0.5 12t11.5 6zM129 447v-247q0 -72 37.5 -112.5t107.5 -40.5q69 0 110 42.5t41 110.5v247q0 7 5 12t12 5h35q7 0 12 -5t5 -12v-430q0 -7 -5 -12t-12 -5h-35q-7 0 -12 4.5t-5 11.5v65
q-21 -43 -65 -68.5t-103 -25.5q-91 0 -144 55t-53 146v259q0 7 5 12t11 5h36q7 0 12 -5t5 -12z" />
    <glyph glyph-name="uacute" unicode="&#xfa;" horiz-adv-x="560"
d="M383 692q8 0 11.5 -6t-0.5 -12l-75 -134q-8 -14 -20 -14h-27q-8 0 -11.5 5t-0.5 12l52 134q5 15 22 15h49zM129 447v-247q0 -72 37.5 -112.5t107.5 -40.5q69 0 110 42.5t41 110.5v247q0 7 5 12t12 5h35q7 0 12 -5t5 -12v-430q0 -7 -5 -12t-12 -5h-35q-7 0 -12 4.5
t-5 11.5v65q-21 -43 -65 -68.5t-103 -25.5q-91 0 -144 55t-53 146v259q0 7 5 12t11 5h36q7 0 12 -5t5 -12z" />
    <glyph glyph-name="ucircumflex" unicode="&#xfb;" horiz-adv-x="560"
d="M260 692h38q15 0 25 -15l90 -133q4 -7 0.5 -12.5t-9.5 -5.5h-34q-13 0 -22 12l-70 94l-69 -94q-11 -12 -22 -12h-34q-7 0 -10 5.5t1 12.5l90 133q8 15 26 15zM129 447v-247q0 -72 37.5 -112.5t107.5 -40.5q69 0 110 42.5t41 110.5v247q0 7 5 12t12 5h35q7 0 12 -5t5 -12
v-430q0 -7 -5 -12t-12 -5h-35q-7 0 -12 4.5t-5 11.5v65q-21 -43 -65 -68.5t-103 -25.5q-91 0 -144 55t-53 146v259q0 7 5 12t11 5h36q7 0 12 -5t5 -12z" />
    <glyph glyph-name="udieresis" unicode="&#xfc;" horiz-adv-x="560"
d="M139 578q0 22 16.5 38.5t38.5 16.5t38 -16.5t16 -38.5t-16 -38t-38 -16t-38.5 16t-16.5 38zM307 578q0 22 16 38.5t38 16.5t38.5 -16.5t16.5 -38.5t-16.5 -38t-38.5 -16t-38 16t-16 38zM129 447v-247q0 -72 37.5 -112.5t107.5 -40.5q69 0 110 42.5t41 110.5v247q0 7 5 12
t12 5h35q7 0 12 -5t5 -12v-430q0 -7 -5 -12t-12 -5h-35q-7 0 -12 4.5t-5 11.5v65q-21 -43 -65 -68.5t-103 -25.5q-91 0 -144 55t-53 146v259q0 7 5 12t11 5h36q7 0 12 -5t5 -12z" />
    <glyph glyph-name="yacute" unicode="&#xfd;" horiz-adv-x="471"
d="M341 692q8 0 11.5 -6t-0.5 -12l-75 -134q-8 -14 -20 -14h-27q-8 0 -11.5 5t-0.5 12l52 134q5 15 22 15h49zM106 -220q-70 0 -110 43q-11 11 1 25l16 18q11 13 28 0q31 -26 65 -26q53 0 79 69l34 91h-19q-15 0 -19 13l-158 432q-2 7 1.5 13t11.5 6h46q13 0 19 -16
l139 -391l135 391q6 16 20 16h44q8 0 11.5 -6t0.5 -13l-202 -557q-38 -108 -143 -108z" />
    <glyph glyph-name="thorn" unicode="&#xfe;" horiz-adv-x="580"
d="M136 232q0 -77 47.5 -129t121.5 -52t121.5 52t47.5 129t-48 129t-121 52t-121 -52t-48 -129zM137 376q22 45 69 72.5t106 27.5q98 0 165.5 -69t67.5 -175t-67.5 -175.5t-165.5 -69.5q-57 0 -104.5 27.5t-70.5 71.5v-275q0 -7 -5 -12t-12 -5h-36q-7 0 -12 5t-5 12v872
q0 7 5 12t12 5h36q7 0 12 -5t5 -12v-307z" />
    <glyph glyph-name="ydieresis" unicode="&#xff;" horiz-adv-x="471"
d="M98 578q0 22 16.5 38.5t38.5 16.5t38 -16.5t16 -38.5t-16 -38t-38 -16t-38.5 16t-16.5 38zM266 578q0 22 16 38.5t38 16.5t38.5 -16.5t16.5 -38.5t-16.5 -38t-38.5 -16t-38 16t-16 38zM106 -220q-70 0 -110 43q-11 11 1 25l16 18q11 13 28 0q31 -26 65 -26q53 0 79 69
l34 91h-19q-15 0 -19 13l-158 432q-2 7 1.5 13t11.5 6h46q13 0 19 -16l139 -391l135 391q6 16 20 16h44q8 0 11.5 -6t0.5 -13l-202 -557q-38 -108 -143 -108z" />
    <glyph glyph-name="dotlessi" unicode="&#x131;" horiz-adv-x="201"
d="M119 0h-36q-7 0 -12 5t-5 12v430q0 7 5 12t12 5h36q7 0 11.5 -5t4.5 -12v-430q0 -7 -4.5 -12t-11.5 -5z" />
    <glyph glyph-name="OE" unicode="&#x152;" horiz-adv-x="1195"
d="M674 350q0 128 -79 213t-201 85t-201.5 -85.5t-79.5 -212.5t79.5 -212.5t201.5 -85.5t201 85t79 213zM669 17v132q-39 -75 -113 -118.5t-165 -43.5q-148 0 -250 104t-102 259t102 259t249 104q91 0 165.5 -43.5t113.5 -118.5v132q0 7 5 12t12 5h463q7 0 12 -5t5 -12v-32
q0 -7 -5 -12t-12 -5h-408v-247h208q17 0 17 -17v-31q0 -7 -5 -12t-12 -5h-208v-256h408q7 0 12 -5t5 -12v-32q0 -7 -5 -12t-12 -5h-463q-7 0 -12 5t-5 12z" />
    <glyph glyph-name="oe" unicode="&#x153;" horiz-adv-x="942"
d="M685 -13q-67 0 -121.5 30.5t-85.5 83.5q-32 -53 -85.5 -83.5t-117.5 -30.5q-101 0 -170.5 70t-69.5 175q0 104 69.5 174t170.5 70q64 0 118 -30.5t86 -83.5q31 53 84.5 84t118.5 31q100 0 166.5 -65.5t66.5 -168.5v-13q0 -17 -16 -17h-384q5 -71 53 -118t119 -47
q81 0 141 68q11 13 24 4l29 -18q12 -8 4 -21q-30 -44 -82 -69t-118 -25zM847 264q-7 71 -52.5 112.5t-112.5 41.5q-66 0 -111.5 -43.5t-53.5 -110.5h330zM105 232q0 -77 48 -129t122 -52q73 0 121 52t48 129t-47.5 129t-121.5 52t-122 -52t-48 -129z" />
    <glyph glyph-name="circumflex" unicode="&#x2c6;" horiz-adv-x="328"
d="M145 692h38q15 0 25 -15l90 -133q4 -7 0.5 -12.5t-9.5 -5.5h-34q-13 0 -22 12l-70 94l-69 -94q-10 -12 -22 -12h-34q-7 0 -10 5.5t1 12.5l90 133q8 15 26 15z" />
    <glyph glyph-name="ring" unicode="&#x2da;" horiz-adv-x="286"
d="M258 622q-1 -48 -34 -79t-81 -31q-47 0 -80.5 31.5t-33.5 78.5t33.5 78.5t80.5 31.5q48 0 81 -31t34 -79zM203 622q0 26 -17 44t-43 18t-43 -18t-17 -44t17 -44t43 -18t43 18t17 44z" />
    <glyph glyph-name="tilde" unicode="&#x2dc;" horiz-adv-x="333"
d="M232 541q-21 0 -70 17t-59 17q-22 0 -38 -25q-7 -13 -23 -2l-13 9q-8 5 -8 14q0 21 23.5 44t56.5 23q21 0 69.5 -17t59.5 -17q21 0 38 25q9 13 23 2l13 -9q8 -5 8 -14q0 -21 -23.5 -44t-56.5 -23z" />
    <glyph glyph-name="endash" unicode="&#x2013;" horiz-adv-x="581"
d="M504 232h-427q-7 0 -12 5t-5 12v37q0 7 5 12t12 5h427q7 0 12 -5t5 -12v-37q0 -7 -5 -12t-12 -5z" />
    <glyph glyph-name="emdash" unicode="&#x2014;" horiz-adv-x="1016"
d="M939 232h-862q-7 0 -12 5t-5 12v37q0 7 5 12t12 5h862q7 0 12 -5t5 -12v-37q0 -7 -5 -12t-12 -5z" />
    <glyph glyph-name="quoteleft" unicode="&#x2018;" horiz-adv-x="229"
d="M131 603q20 -7 33 -24t13 -38q0 -28 -19.5 -47.5t-47.5 -19.5q-27 0 -47 20t-20 50q0 62 82 155q19 19 31 12l10 -5q14 -10 9 -20z" />
    <glyph glyph-name="quoteright" unicode="&#x2019;" horiz-adv-x="227"
d="M101 584q-20 8 -32.5 25t-12.5 38q0 28 19.5 47t47.5 19q27 0 47 -20t20 -50q0 -62 -82 -155q-20 -20 -32 -12l-9 6q-15 7 -9 19z" />
    <glyph glyph-name="quotesinglbase" unicode="&#x201a;" horiz-adv-x="241"
d="M99 -9q-20 7 -32.5 24t-12.5 38q0 29 19 48t48 19q27 0 46.5 -20t19.5 -50q0 -63 -81 -155q-20 -20 -32 -12l-10 5q-14 9 -8 20z" />
    <glyph glyph-name="quotedblleft" unicode="&#x201c;" horiz-adv-x="396"
d="M298 603q21 -7 33.5 -24t12.5 -38q0 -28 -19.5 -47.5t-47.5 -19.5q-27 0 -47 20t-20 50q0 62 82 155q19 19 32 12l9 -5q15 -9 9 -20zM131 603q20 -7 33 -24t13 -38q0 -28 -19.5 -47.5t-47.5 -19.5q-27 0 -47 20t-20 50q0 62 82 155q19 19 31 12l10 -5q14 -10 9 -20z" />
    <glyph glyph-name="quotedblright" unicode="&#x201d;" horiz-adv-x="394"
d="M101 584q-20 8 -32.5 25t-12.5 38q0 28 19.5 47t47.5 19q27 0 47 -20t20 -50q0 -62 -82 -155q-20 -20 -32 -12l-9 6q-15 7 -9 19zM269 584q-21 8 -33.5 25t-12.5 38q0 28 19.5 47t47.5 19q27 0 47 -20t20 -50q0 -62 -82 -155q-19 -19 -32 -12l-9 6q-14 8 -9 19z" />
    <glyph glyph-name="quotedblbase" unicode="&#x201e;" horiz-adv-x="409"
d="M99 -9q-20 7 -32.5 24t-12.5 38q0 29 19 48t48 19q27 0 47 -20t20 -50q0 -62 -82 -155q-18 -20 -32 -12l-9 5q-14 8 -9 20zM267 -9q-21 7 -33.5 24t-12.5 38q0 28 19.5 47.5t47.5 19.5q27 0 47 -20t20 -50q0 -62 -82 -155q-18 -20 -31 -12l-10 5q-14 9 -9 20z" />
    <glyph glyph-name="dagger" unicode="&#x2020;" horiz-adv-x="426"
d="M244 475v-311q0 -16 -16 -16h-31q-6 0 -11 4.5t-5 11.5v311h-122q-16 0 -16 16v27q0 16 16 16h122v150q0 7 5 11.5t11 4.5h31q16 0 16 -16v-150h123q16 0 16 -16v-27q0 -16 -16 -16h-123z" />
    <glyph glyph-name="daggerdbl" unicode="&#x2021;" horiz-adv-x="426"
d="M244 206v-190q0 -16 -16 -16h-31q-6 0 -11 4.5t-5 11.5v190h-123q-6 0 -11 4.5t-5 11.5v27q0 7 5 11.5t11 4.5h123v170h-123q-6 0 -11 4.5t-5 11.5v27q0 7 5 11.5t11 4.5h123v190q0 7 5 11.5t11 4.5h31q16 0 16 -16v-190h123q16 0 16 -16v-27q0 -16 -16 -16h-123v-170
h123q16 0 16 -16v-27q0 -16 -16 -16h-123z" />
    <glyph glyph-name="bullet" unicode="&#x2022;" horiz-adv-x="339"
d="M170 266q-38 0 -65 26.5t-27 64.5t27 64.5t65 26.5q37 0 64 -27t27 -64t-27 -64t-64 -27z" />
    <glyph glyph-name="ellipsis" unicode="&#x2026;" horiz-adv-x="748"
d="M117 -13q-27 0 -46 19.5t-19 46.5t19 46.5t46 19.5q28 0 47 -19.5t19 -46.5t-19 -46.5t-47 -19.5zM374 -13q-27 0 -46.5 19.5t-19.5 46.5t19.5 46.5t46.5 19.5t46 -19.5t19 -46.5t-19 -46.5t-46 -19.5zM630 -13q-27 0 -46 19.5t-19 46.5t19 46.5t46 19.5t46.5 -19.5
t19.5 -46.5t-19.5 -46.5t-46.5 -19.5z" />
    <glyph glyph-name="perthousand" unicode="&#x2030;" horiz-adv-x="1037"
d="M166 707q61 0 96.5 -50.5t35.5 -130.5q0 -82 -35.5 -132.5t-96.5 -50.5t-95.5 50.5t-34.5 132.5q0 81 34.5 131t95.5 50zM135 0h-15q-11 0 -14.5 8t3.5 19l449 657q10 16 27 16h15q11 0 14.5 -8t-3.5 -19l-449 -657q-10 -16 -27 -16zM89 525q0 -67 21.5 -101.5
t55.5 -34.5t56 34.5t22 101.5t-22 101.5t-56 34.5t-55.5 -34.5t-21.5 -101.5zM871 356q61 0 96.5 -50.5t35.5 -130.5q0 -82 -35.5 -132.5t-96.5 -50.5t-95.5 50.5t-34.5 132.5q0 80 35 130.5t95 50.5zM550 356q61 0 96.5 -50.5t35.5 -130.5q0 -82 -35.5 -132.5t-96.5 -50.5
t-95.5 50t-34.5 133q0 81 34.5 131t95.5 50zM794 173q0 -67 21.5 -101.5t55.5 -34.5q35 0 57 34.5t22 101.5t-22 101.5t-57 34.5q-34 0 -55.5 -34.5t-21.5 -101.5zM473 173q0 -67 21.5 -101.5t55.5 -34.5t56 34.5t22 101.5t-22 101.5t-56 34.5t-55.5 -34.5t-21.5 -101.5z
" />
    <glyph glyph-name="guilsinglleft" unicode="&#x2039;" horiz-adv-x="274"
d="M210 30h-39q-17 0 -25 14l-95 183q-8 13 0 28l95 183q7 14 25 14h39q7 0 10.5 -5t-0.5 -12l-95 -194l95 -194q3 -6 0 -11.5t-10 -5.5z" />
    <glyph glyph-name="guilsinglright" unicode="&#x203a;" horiz-adv-x="273"
d="M223 227l-96 -183q-7 -14 -25 -14h-39q-6 0 -9.5 5.5t-0.5 11.5l95 194l-95 194q-3 7 0.5 12t9.5 5h39q18 0 25 -14l96 -183q7 -15 0 -28z" />
    <glyph glyph-name="fraction" unicode="&#x2044;" horiz-adv-x="108"
d="M304 673l-454 -654q-12 -19 -26 -19h-11q-11 0 -14.5 8.5t3.5 18.5l454 654q12 19 26 19h11q11 0 14.5 -8.5t-3.5 -18.5z" />
    <glyph glyph-name="foursuperior" unicode="&#x2074;" horiz-adv-x="315"
d="M225 498h-25q-12 0 -12 11v88h-164q-10 0 -10 11v17q0 14 5 21l149 194q7 10 17 10h40q5 0 8.5 -4t3.5 -8v-200h54q10 0 10 -12v-17q0 -12 -10 -12h-54v-88q0 -11 -12 -11zM65 638h123v161z" />
    <glyph glyph-name="Euro" unicode="&#x20ac;" horiz-adv-x="677"
d="M400 -13q-115 0 -189.5 70t-99.5 189h-59q-7 0 -12 5t-5 12v19q0 7 5 12t12 5h50q-2 17 -2 51t2 51h-50q-7 0 -12 5t-5 12v19q0 7 5 12t12 5h59q25 119 99.5 189t189.5 70q76 0 136 -29.5t93 -82.5q9 -14 -6 -25l-21 -16q-18 -13 -29 3q-66 86 -172 86q-165 0 -212 -195
h246q7 0 12 -5t5 -12v-19q0 -7 -5 -12t-12 -5h-258q-3 -25 -3 -51t3 -51h258q7 0 12 -5t5 -12v-19q0 -7 -5 -12t-12 -5h-246q47 -195 212 -195q106 0 172 86q11 16 29 3l21 -16q15 -11 6 -25q-33 -53 -93 -82.5t-136 -29.5z" />
    <glyph glyph-name="trademark" horiz-adv-x="874"
d="M34 667v19q0 5 4 9.5t10 4.5h301q5 0 9.5 -4.5t4.5 -9.5v-19q0 -6 -4.5 -10t-9.5 -4h-124v-281q0 -6 -4.5 -10.5t-9.5 -4.5h-25q-6 0 -10.5 4.5t-4.5 10.5v281h-123q-14 0 -14 14zM514 686l97 -193l96 193q7 14 20 14h54q6 0 10.5 -4.5t4.5 -9.5v-314q0 -6 -4.5 -10.5
t-10.5 -4.5h-26q-5 0 -9.5 4.5t-4.5 10.5v270l-100 -197q-6 -14 -20 -14h-24q-14 0 -20 14l-100 197v-270q0 -6 -4.5 -10.5t-10.5 -4.5h-24q-5 0 -9.5 4.5t-4.5 10.5v314q0 5 4.5 9.5t9.5 4.5h56q13 0 20 -14z" />
    <glyph glyph-name="onethird" horiz-adv-x="691"
d="M553 673l-454 -654q-12 -19 -26 -19h-11q-11 0 -14.5 8.5t3.5 18.5l454 654q12 19 26 19h11q11 0 14.5 -8.5t-3.5 -18.5zM43 625v22q0 10 9 10h15q29 0 42 28q6 15 21 15h13q11 0 11 -10v-331q0 -11 -12 -11h-26q-11 0 -11 11v257h-53q-9 0 -9 9zM528 312q-47 0 -68 -42
q-5 -10 -16 -6l-21 8q-11 4 -5 16q12 28 41 47t72 19q47 0 77 -25.5t30 -65.5q0 -56 -51 -77q31 -8 50 -31.5t19 -55.5q0 -47 -36.5 -78t-92.5 -31q-59 0 -95.5 31t-36.5 79v8q0 8 8 8h34q8 0 8 -8v-8q0 -26 21.5 -47t59.5 -21q35 0 57 20t22 47t-20 44.5t-55 17.5h-11
q-11 0 -11 11v18q0 12 11 12h11q27 0 43.5 15.5t16.5 38.5q0 24 -17 40t-45 16z" />
    <glyph glyph-name="twothirds" horiz-adv-x="776"
d="M282 350h-226q-11 0 -11 10v27q0 8 7 15l105 90q41 35 60 58t19 49q0 28 -19.5 45t-48.5 17q-56 0 -79 -61q-4 -12 -18 -8l-22 6q-10 3 -8 14q9 39 44 66.5t83 27.5q50 0 84.5 -29.5t34.5 -75.5q0 -33 -18.5 -62t-61.5 -65l-93 -77h168q12 0 12 -11v-25q0 -11 -12 -11z
M638 673l-454 -654q-12 -19 -26 -19h-11q-11 0 -14.5 8.5t3.5 18.5l454 654q12 19 26 19h11q11 0 14.5 -8.5t-3.5 -18.5zM613 312q-47 0 -68 -42q-5 -10 -16 -6l-21 8q-11 4 -5 16q12 28 41 47t72 19q47 0 77 -25.5t30 -65.5q0 -56 -51 -77q31 -8 50 -31.5t19 -55.5
q0 -47 -36.5 -78t-92.5 -31q-59 0 -95.5 31t-36.5 79v8q0 8 8 8h34q8 0 8 -8v-8q0 -26 21.5 -47t59.5 -21q35 0 57 20t22 47t-20 44.5t-55 17.5h-11q-11 0 -11 11v18q0 12 11 12h11q27 0 43.5 15.5t16.5 38.5q0 24 -17 40t-45 16z" />
    <glyph glyph-name="oneeight" horiz-adv-x="734"
d="M557 673l-454 -654q-12 -19 -26 -19h-11q-11 0 -14.5 8.5t3.5 18.5l454 654q12 19 26 19h11q11 0 14.5 -8.5t-3.5 -18.5zM40 625v22q0 10 9 10h15q29 0 42 28q6 15 21 15h13q11 0 11 -10v-331q0 -11 -12 -11h-26q-11 0 -11 11v257h-53q-9 0 -9 9zM565 -8q-61 0 -98 30
t-37 75q0 32 20 56.5t51 32.5q-24 9 -39.5 29t-15.5 47q0 41 34 67.5t85 26.5t85 -26.5t34 -67.5q0 -55 -55 -76q31 -8 51 -32.5t20 -56.5q0 -45 -37.5 -75t-97.5 -30zM565 316q-31 0 -50.5 -16t-19.5 -40t19.5 -40t50.5 -16t50.5 16t19.5 40t-19.5 40t-50.5 16zM565 163
q-37 0 -60 -18.5t-23 -45.5q0 -28 23 -46.5t60 -18.5t60 18.5t23 46.5q0 27 -23 45.5t-60 18.5z" />
    <glyph glyph-name="threeeights" horiz-adv-x="745"
d="M608 673l-454 -654q-12 -19 -26 -19h-11q-11 0 -14.5 8.5t3.5 18.5l454 654q12 19 26 19h11q11 0 14.5 -8.5t-3.5 -18.5zM170 667q-47 0 -68 -42q-5 -10 -16 -6l-21 8q-11 4 -5 16q12 28 41 47t72 19q47 0 77 -25.5t30 -65.5q0 -56 -51 -77q31 -8 50 -31.5t19 -55.5
q0 -47 -36.5 -78t-92.5 -31q-59 0 -95.5 31t-36.5 79v8q0 8 8 8h34q8 0 8 -8v-8q0 -26 21.5 -47t59.5 -21q35 0 57 20t22 47t-20 44.5t-55 17.5h-11q-11 0 -11 11v18q0 12 11 12h11q27 0 43.5 15.5t16.5 38.5q0 24 -17 40t-45 16zM575 -8q-61 0 -98 30t-37 75q0 32 20 56.5
t51 32.5q-24 9 -39.5 29t-15.5 47q0 41 34 67.5t85 26.5t85 -26.5t34 -67.5q0 -55 -55 -76q31 -8 51 -32.5t20 -56.5q0 -45 -37.5 -75t-97.5 -30zM575 316q-31 0 -50.5 -16t-19.5 -40t19.5 -40t50.5 -16t50.5 16t19.5 40t-19.5 40t-50.5 16zM575 163q-37 0 -60 -18.5
t-23 -45.5q0 -28 23 -46.5t60 -18.5t60 18.5t23 46.5q0 27 -23 45.5t-60 18.5z" />
    <glyph glyph-name="fiveeights" horiz-adv-x="745"
d="M608 672l-454 -654q-12 -19 -26 -19h-11q-11 0 -14.5 8.5t3.5 18.5l454 654q12 19 26 19h11q11 0 14.5 -8.5t-3.5 -18.5zM164 342q-85 0 -124 60q-7 10 5 18l19 14q11 7 19 -5q30 -42 81 -42q35 0 57.5 22t22.5 53q0 33 -22 52.5t-56 19.5q-33 0 -63 -22q-8 -7 -16 -4
l-25 6q-7 3 -7 11l12 164q2 11 12 11h188q11 0 11 -12v-23q0 -12 -11 -12h-159l-8 -99q34 23 78 23q50 0 84 -31t34 -82t-37 -86.5t-95 -35.5zM575 -8q-61 0 -98 30t-37 75q0 32 20 56.5t51 32.5q-24 9 -39.5 29t-15.5 47q0 41 34 67.5t85 26.5t85 -26.5t34 -67.5
q0 -55 -55 -76q31 -8 51 -32.5t20 -56.5q0 -45 -37.5 -75t-97.5 -30zM575 316q-31 0 -50.5 -16t-19.5 -40t19.5 -40t50.5 -16t50.5 16t19.5 40t-19.5 40t-50.5 16zM575 163q-37 0 -60 -18.5t-23 -45.5q0 -28 23 -46.5t60 -18.5t60 18.5t23 46.5q0 27 -23 45.5t-60 18.5z" />
    <glyph glyph-name="seveneights" horiz-adv-x="697"
d="M560 673l-454 -654q-12 -19 -26 -19h-11q-11 0 -14.5 8.5t3.5 18.5l454 654q12 19 26 19h11q11 0 14.5 -8.5t-3.5 -18.5zM128 348h-35q-5 0 -7.5 4t0.5 9l144 292h-180q-12 0 -12 13v22q0 12 12 12h225q11 0 11 -11v-16q0 -10 -5 -20l-140 -295q-5 -10 -13 -10zM527 -8
q-61 0 -98 30t-37 75q0 32 20 56.5t51 32.5q-24 9 -39.5 29t-15.5 47q0 41 34 67.5t85 26.5t85 -26.5t34 -67.5q0 -55 -55 -76q31 -8 51 -32.5t20 -56.5q0 -45 -37.5 -75t-97.5 -30zM527 316q-31 0 -50.5 -16t-19.5 -40t19.5 -40t50.5 -16t50.5 16t19.5 40t-19.5 40
t-50.5 16zM527 163q-37 0 -60 -18.5t-23 -45.5q0 -28 23 -46.5t60 -18.5t60 18.5t23 46.5q0 27 -23 45.5t-60 18.5z" />
    <glyph glyph-name="arrowup" horiz-adv-x="800"
d="M150 515l241 219q9 7 17 0l243 -219q12 -11 12 -24v-53q0 -6 -5 -8.5t-12 2.5l-212 195v-647q0 -7 -5 -12t-12 -5h-34q-7 0 -12 5t-5 12v647l-212 -194q-7 -5 -12 -3t-5 8v53q0 14 13 24z" />
    <glyph glyph-name="arrowdown" horiz-adv-x="800"
d="M150 186q-13 9 -13 23v53q0 6 5 8.5t12 -2.5l212 -195v647q0 7 5 12t12 5h34q7 0 12 -5t5 -12v-647l212 196q7 4 12 2t5 -8v-54q0 -14 -12 -23l-243 -220q-8 -5 -17 0z" />
    <glyph glyph-name="arrowupleft" horiz-adv-x="880"
d="M510 695q18 2 25 -8l38 -37q4 -4 3 -10t-9 -6l-290 -13l481 -480q12 -13 0 -25l-23 -23q-13 -13 -25 0l-480 481l-13 -291q0 -7 -5.5 -8.5t-9.5 2.5l-38 38q-11 9 -9 26l17 327q0 11 12 11z" />
    <glyph glyph-name="arrowupright" horiz-adv-x="880"
d="M370 695l326 -16q12 0 12 -11l17 -327q2 -17 -9 -26l-38 -38q-4 -4 -9.5 -2.5t-5.5 8.5l-13 291l-480 -481q-12 -13 -25 0l-23 23q-12 12 0 25l481 480l-290 13q-8 0 -9 6t3 10l38 37q7 10 25 8z" />
    <glyph glyph-name="arrowdownright" horiz-adv-x="880"
d="M366 87q-15 -2 -25 8l-38 37q-4 4 -3 10t9 6l290 13l-481 480q-12 13 0 25l23 23q13 13 25 0l480 -481l13 291q0 7 5.5 8.5t9.5 -2.5l38 -38q10 -10 9 -26l-17 -327q0 -11 -12 -11z" />
    <glyph glyph-name="arrowdownleft" horiz-adv-x="880"
d="M514 87l-326 16q-12 0 -12 11l-17 327q-1 16 9 26l38 38q4 4 9.5 2.5t5.5 -8.5l13 -291l480 481q12 13 25 0l23 -23q12 -12 0 -25l-481 -480l290 -13q8 0 9 -6t-3 -10l-38 -37q-8 -8 -25 -8z" />
    <glyph glyph-name="product" horiz-adv-x="837"
d="M44 350q0 160 109 266.5t266 106.5t265.5 -106.5t108.5 -266.5q0 -159 -108.5 -265.5t-265.5 -106.5t-266 106.5t-109 265.5zM740 350q0 140 -93 233.5t-228 93.5q-136 0 -229.5 -93.5t-93.5 -233.5t93.5 -233t229.5 -93q135 0 228 93t93 233zM292 574h153q78 0 122 -42
t44 -102t-44 -101.5t-122 -42.5h-107v-150q0 -5 -4.5 -9.5t-9.5 -4.5h-32q-5 0 -9.5 4.5t-4.5 9.5v424q0 5 4.5 9.5t9.5 4.5zM549 431q0 42 -28.5 66.5t-73.5 24.5h-109v-184h109q44 0 73 25.5t29 67.5z" />
    <glyph glyph-name="minus" unicode="&#x2212;" horiz-adv-x="566"
d="M502 372v-35q0 -7 -5 -12t-12 -5h-404q-7 0 -12 5t-5 12v35q0 7 5 12t12 5h404q7 0 12 -5t5 -12z" />
    <glyph glyph-name="logo.01" horiz-adv-x="1209"
d="M572 -162q-97 44 -187 107.5t-166.5 144.5t-122.5 181.5t-46 203.5q0 74 27 143t75 119q91 93 235 93q124 0 222 -86q94 84 217 84q141 0 232 -94q48 -49 74.5 -118t26.5 -143q0 -85 -32 -168t-84 -151.5t-121.5 -130t-141.5 -107t-146 -78.5q-31 -14 -62 0z" />
    <glyph glyph-name="i.TRK" horiz-adv-x="201"
d="M101 568q-23 0 -39.5 17t-16.5 40t16.5 40t39.5 17t39.5 -17t16.5 -40t-16.5 -40t-39.5 -17zM119 0h-36q-7 0 -12 5t-5 12v430q0 7 5 12t12 5h36q7 0 11.5 -5t4.5 -12v-430q0 -7 -4.5 -12t-11.5 -5z" />
    <glyph glyph-name="zero.numr" horiz-adv-x="321"
d="M30 522q0 81 35 131.5t96 50.5t95.5 -50.5t34.5 -131.5q0 -82 -34.5 -132t-95.5 -50t-96 50t-35 132zM83 521q0 -67 22 -102t56 -35q33 0 55 35t22 102t-22 102.5t-55 35.5q-34 0 -56 -35.5t-22 -102.5z" />
    <glyph glyph-name="one.numr" horiz-adv-x="175"
d="M15 625v22q0 10 9 10h15q29 0 42 28q6 15 21 15h13q11 0 11 -10v-331q0 -11 -12 -11h-26q-11 0 -11 11v257h-53q-9 0 -9 9z" />
    <glyph glyph-name="two.numr" horiz-adv-x="304"
d="M266 348h-226q-11 0 -11 10v27q0 8 7 15l105 90q41 35 60 58t19 49q0 28 -19.5 45t-48.5 17q-56 0 -79 -61q-4 -12 -18 -8l-22 6q-10 3 -8 14q9 39 44 66.5t83 27.5q50 0 84.5 -29.5t34.5 -75.5q0 -33 -18.5 -62t-61.5 -65l-93 -77h168q12 0 12 -11v-25q0 -11 -12 -11z
" />
    <glyph glyph-name="three.numr" horiz-adv-x="310"
d="M154 662q-47 0 -68 -42q-5 -10 -16 -6l-21 8q-11 4 -5 16q12 28 41 47t72 19q47 0 77 -25.5t30 -65.5q0 -56 -51 -77q31 -8 50 -31.5t19 -55.5q0 -47 -36.5 -78t-92.5 -31q-59 0 -95.5 31t-36.5 79v8q0 8 8 8h34q8 0 8 -8v-8q0 -26 21.5 -47t59.5 -21q35 0 57 20t22 47
t-20 44.5t-55 17.5h-11q-11 0 -11 11v18q0 12 11 12h11q27 0 43.5 15.5t16.5 38.5q0 24 -17 40t-45 16z" />
    <glyph glyph-name="four.numr" horiz-adv-x="315"
d="M225 348h-25q-12 0 -12 11v88h-164q-10 0 -10 11v17q0 14 5 21l149 194q7 10 17 10h40q5 0 8.5 -4t3.5 -8v-200h54q10 0 10 -12v-17q0 -12 -10 -12h-54v-88q0 -11 -12 -11zM65 488h123v161z" />
    <glyph glyph-name="five.numr" horiz-adv-x="305"
d="M149 342q-85 0 -124 60q-7 10 5 18l19 14q11 7 19 -5q30 -42 81 -42q35 0 57.5 22t22.5 53q0 33 -22 52.5t-56 19.5q-33 0 -63 -22q-8 -7 -16 -4l-25 6q-7 3 -7 11l12 164q2 11 12 11h188q11 0 11 -12v-23q0 -12 -11 -12h-159l-8 -99q34 23 78 23q50 0 84 -31t34 -82
t-37 -86.5t-95 -35.5z" />
    <glyph glyph-name="six.numr" horiz-adv-x="306"
d="M288 463q0 -52 -37.5 -86t-93.5 -34q-57 0 -93.5 35t-36.5 92q0 98 133 225q5 5 14 5h33q6 0 8 -5t-2 -9q-97 -97 -117 -134q30 24 74 24q47 0 82.5 -31t35.5 -82zM78 461q0 -33 22.5 -54.5t56.5 -21.5q35 0 57 21t22 55q0 33 -22 54t-57 21q-34 0 -56.5 -21t-22.5 -54z
" />
    <glyph glyph-name="seven.numr" horiz-adv-x="273"
d="M102 348h-35q-5 0 -7.5 4t0.5 9l144 292h-180q-12 0 -12 13v22q0 12 12 12h225q11 0 11 -11v-16q0 -10 -5 -20l-140 -295q-5 -10 -13 -10z" />
    <glyph glyph-name="eight.numr" horiz-adv-x="326"
d="M163 340q-61 0 -98 30t-37 75q0 32 20 56.5t51 32.5q-24 9 -39.5 29t-15.5 47q0 41 34 67.5t85 26.5t85 -26.5t34 -67.5q0 -55 -55 -76q31 -8 51 -32.5t20 -56.5q0 -45 -37.5 -75t-97.5 -30zM163 664q-31 0 -50.5 -16t-19.5 -40t19.5 -40t50.5 -16t50.5 16t19.5 40
t-19.5 40t-50.5 16zM163 511q-37 0 -60 -18.5t-23 -45.5q0 -28 23 -46.5t60 -18.5t60 18.5t23 46.5q0 27 -23 45.5t-60 18.5z" />
    <glyph glyph-name="nine.numr" horiz-adv-x="306"
d="M18 585q0 52 37.5 86t93.5 34q57 0 93.5 -35t36.5 -92q0 -98 -133 -225q-5 -5 -14 -5h-33q-6 0 -8 5t2 9q97 97 117 134q-30 -24 -74 -24q-47 0 -82.5 31t-35.5 82zM228 587q0 33 -22.5 54.5t-56.5 21.5q-35 0 -57 -21t-22 -55q0 -33 22 -54t57 -21q34 0 56.5 21t22.5 54
z" />
    <glyph glyph-name="zero.dnom" horiz-adv-x="321"
d="M30 174q0 81 35 131.5t96 50.5t95.5 -50.5t34.5 -131.5q0 -82 -34.5 -132t-95.5 -50t-96 50t-35 132zM83 173q0 -67 22 -102t56 -35q33 0 55 35t22 102t-22 102.5t-55 35.5q-34 0 -56 -35.5t-22 -102.5z" />
    <glyph glyph-name="one.dnom" horiz-adv-x="175"
d="M15 277v22q0 10 9 10h15q29 0 42 28q6 15 21 15h13q11 0 11 -10v-331q0 -11 -12 -11h-26q-11 0 -11 11v257h-53q-9 0 -9 9z" />
    <glyph glyph-name="two.dnom" horiz-adv-x="304"
d="M266 0h-226q-11 0 -11 10v27q0 8 7 15l105 90q41 35 60 58t19 49q0 28 -19.5 45t-48.5 17q-56 0 -79 -61q-4 -12 -18 -8l-22 6q-10 3 -8 14q9 39 44 66.5t83 27.5q50 0 84.5 -29.5t34.5 -75.5q0 -33 -18.5 -62t-61.5 -65l-93 -77h168q12 0 12 -11v-25q0 -11 -12 -11z" />
    <glyph glyph-name="three.dnom" horiz-adv-x="310"
d="M154 314q-47 0 -68 -42q-5 -10 -16 -6l-21 8q-11 4 -5 16q12 28 41 47t72 19q47 0 77 -25.5t30 -65.5q0 -56 -51 -77q31 -8 50 -31.5t19 -55.5q0 -47 -36.5 -78t-92.5 -31q-59 0 -95.5 31t-36.5 79v8q0 8 8 8h34q8 0 8 -8v-8q0 -26 21.5 -47t59.5 -21q35 0 57 20t22 47
t-20 44.5t-55 17.5h-11q-11 0 -11 11v18q0 12 11 12h11q27 0 43.5 15.5t16.5 38.5q0 24 -17 40t-45 16z" />
    <glyph glyph-name="four.dnom" horiz-adv-x="315"
d="M225 0h-25q-12 0 -12 11v88h-164q-10 0 -10 11v17q0 14 5 21l149 194q7 10 17 10h40q5 0 8.5 -4t3.5 -8v-200h54q10 0 10 -12v-17q0 -12 -10 -12h-54v-88q0 -11 -12 -11zM65 140h123v161z" />
    <glyph glyph-name="five.dnom" horiz-adv-x="305"
d="M149 -6q-85 0 -124 60q-7 10 5 18l19 14q11 7 19 -5q30 -42 81 -42q35 0 57.5 22t22.5 53q0 33 -22 52.5t-56 19.5q-33 0 -63 -22q-8 -7 -16 -4l-25 6q-7 3 -7 11l12 164q2 11 12 11h188q11 0 11 -12v-23q0 -12 -11 -12h-159l-8 -99q34 23 78 23q50 0 84 -31t34 -82
t-37 -86.5t-95 -35.5z" />
    <glyph glyph-name="six.dnom" horiz-adv-x="306"
d="M288 115q0 -52 -37.5 -86t-93.5 -34q-57 0 -93.5 35t-36.5 92q0 98 133 225q5 5 14 5h33q6 0 8 -5t-2 -9q-97 -97 -117 -134q30 24 74 24q47 0 82.5 -31t35.5 -82zM78 113q0 -33 22.5 -54.5t56.5 -21.5q35 0 57 21t22 55q0 33 -22 54t-57 21q-34 0 -56.5 -21t-22.5 -54z
" />
    <glyph glyph-name="seven.dnom" horiz-adv-x="273"
d="M102 0h-35q-5 0 -7.5 4t0.5 9l144 292h-180q-12 0 -12 13v22q0 12 12 12h225q11 0 11 -11v-16q0 -10 -5 -20l-140 -295q-5 -10 -13 -10z" />
    <glyph glyph-name="eight.dnom" horiz-adv-x="326"
d="M163 -8q-61 0 -98 30t-37 75q0 32 20 56.5t51 32.5q-24 9 -39.5 29t-15.5 47q0 41 34 67.5t85 26.5t85 -26.5t34 -67.5q0 -55 -55 -76q31 -8 51 -32.5t20 -56.5q0 -45 -37.5 -75t-97.5 -30zM163 316q-31 0 -50.5 -16t-19.5 -40t19.5 -40t50.5 -16t50.5 16t19.5 40
t-19.5 40t-50.5 16zM163 163q-37 0 -60 -18.5t-23 -45.5q0 -28 23 -46.5t60 -18.5t60 18.5t23 46.5q0 27 -23 45.5t-60 18.5z" />
    <glyph glyph-name="nine.dnom" horiz-adv-x="306"
d="M18 237q0 52 37.5 86t93.5 34q57 0 93.5 -35t36.5 -92q0 -98 -133 -225q-5 -5 -14 -5h-33q-6 0 -8 5t2 9q97 97 117 134q-30 -24 -74 -24q-47 0 -82.5 31t-35.5 82zM228 239q0 33 -22.5 54.5t-56.5 21.5q-35 0 -57 -21t-22 -55q0 -33 22 -54t57 -21q34 0 56.5 21t22.5 54
z" />
    <glyph glyph-name="less.alt" horiz-adv-x="960"
d="M309 602q11 13 24 13h53q6 0 8 -5.5t-3 -11.5l-194 -213h647q7 0 12 -5t5 -12v-33q0 -7 -5 -12t-12 -5h-647l195 -213q5 -6 2.5 -11t-8.5 -5h-53q-15 0 -24 12l-219 243q-7 9 0 16z" />
    <glyph glyph-name="greater.alt" horiz-adv-x="960"
d="M650 602l219 -242q7 -7 0 -16l-219 -243q-9 -12 -24 -12h-53q-6 0 -8.5 5t2.5 11l195 213h-647q-7 0 -12 5t-5 12v33q0 7 5 12t12 5h647l-194 213q-5 6 -3 11.5t8 5.5h53q13 0 24 -13z" />
    <glyph glyph-name="logo" horiz-adv-x="1209"
d="M572 -162q-97 44 -187 107.5t-166.5 144.5t-122.5 181.5t-46 203.5q0 74 27 143t75 119q91 93 235 93q124 0 222 -86q94 84 217 84q141 0 232 -94q48 -49 74.5 -118t26.5 -143q0 -85 -32 -168t-84 -151.5t-121.5 -130t-141.5 -107t-146 -78.5q-31 -14 -62 0zM594 -124
q9 -4 18 0q11 4 38 17.5t88 51t115 79.5q106 83 171 179q91 133 91 271q0 67 -24.5 128.5t-69.5 105.5q-82 79 -198 79q-121 0 -218 -87q-102 88 -221 88q-114 0 -195 -78q-45 -44 -70 -106.5t-25 -130.5q0 -137 90 -268q67 -98 171 -180q53 -43 113.5 -80.5t87.5 -51
t38 -17.5zM399 496q11 0 17 8q13 12 4 34l-63 159q-7 17 -24 10t-10 -24l34 -86l-98 -22q-18 -4 -14 -22t22 -14l104 23l9 -22q-7 -9 -7 -18q0 -10 7.5 -18t18.5 -8zM857 515q29 -8 55 7q25 13 34.5 39.5t-2.5 49.5l-33 67q-3 7 -11 9t-14 -1l-135 -74q-16 -9 -7 -25t25 -7
l27 15l26 -50q11 -22 35 -30zM458 622q13 0 22.5 10t9.5 22q0 14 -9 23.5t-23 9.5t-23 -9.5t-9 -22.5q0 -14 9.5 -23.5t22.5 -9.5zM603 506q-48 0 -92 14q47 82 94 130q43 -44 93 -129q-43 -15 -95 -15zM895 553q-29 -13 -41 8l-26 52l59 32l25 -50q5 -12 0 -24t-17 -18z
M904 301q7 3 10 10t0 13l-40 90l33 15l15 -33q7 -16 24 -9q16 7 9 24l-15 34l31 15l32 -72q7 -16 24 -9q16 7 9 24l-40 89q-3 7 -10 10q-8 2 -14 -1l-129 -62q-16 -9 -9 -24l47 -105q7 -16 23 -9zM492 79h241q19 0 19 18q0 7 -5 12.5t-13 5.5h-179q34 18 57 32.5t53.5 39
t46.5 54.5t16 63q0 50 -33 87t-90 37q-56 0 -93.5 -32.5t-37.5 -83.5q0 -36 24.5 -64.5t62.5 -28.5q30 0 54 19t24 54q0 23 -11.5 33.5t-24.5 10.5q-14 0 -23.5 -9.5t-9.5 -22.5q0 -17 15 -27q1 -1 0 -6.5t-7.5 -10.5t-18.5 -5q-22 0 -34.5 18.5t-12.5 39.5q0 36 25 58
t66 22q40 0 62.5 -26t22.5 -62q0 -68 -109 -139q-22 -14 -46.5 -27t-38.5 -20.5t-15 -8.5q-8 -10 -4 -20q5 -11 17 -11zM191 350q18 -5 23 12l17 50l114 -40q18 -7 23 11q3 7 -0.5 14t-10.5 9l-115 41l15 47q5 18 -12 23q-7 2 -14 -1.5t-9 -10.5l-43 -132q-2 -7 1.5 -14
t10.5 -9zM603 -90q-116 56 -226 144q-103 82 -163 172q-83 120 -83 248t84 210q71 68 172 68t192 -77q-55 -58 -99 -135q-77 -135 -123 -319l-50 10q-7 2 -13.5 -2t-7.5 -11q-4 -16 14 -20l135 -29q16 -4 20 13q3 17 -13 21l-48 10q39 155 100 274q52 -19 109 -19
q60 0 112 20q62 -124 98 -276l-48 -10q-16 -4 -14 -20q4 -18 21 -14l135 28q17 4 13 20q-1 7 -7 11.5t-13 2.5l-49 -10l-1 1v2q-47 186 -123 320q-43 78 -95 131q90 77 191 77q103 0 172 -69q83 -81 83 -209q0 -125 -84 -250q-62 -89 -164 -170q-108 -86 -227 -143zM603 -30
q13 0 22.5 10t9.5 22q0 14 -9 23.5t-23 9.5t-23 -9.5t-9 -22.5q0 -14 9.5 -23.5t22.5 -9.5z" />
    </font>
</defs>
</svg>
